Поиск

(Free Jazz, Avant-Garde Jazz, Soul Note) Riccardo Luppi Sextet (feat. Tiziano Tononi, Daniele Cavallanti, Paolino Dalla Porta) - Homage To Duke Ellington - 2002, FLAC (tracks+.cue), lossless

(Free Jazz, Avant-Garde Jazz, Soul Note) Riccardo Luppi Sextet (feat. Tiziano Tononi, Daniele Cavallanti, Paolino Dalla Porta) - Homage To Duke Ellington - 2002, FLAC (tracks+.cue), lossless
Издатель (лейбл):
Треклист:
Riccardo Luppi Sextet / Homage To Duke Ellington
Жанр: Free Jazz, Avant-Garde Jazz, Soul Note
Страна-производитель диска: Italy
Год издания: 2002
Издатель (лейбл): Soul Note
Номер по каталогу: 121382-2
Страна: Italy
Аудиокодек: FLAC (*.flac)
Тип рипа: tracks+.cue
Битрейт аудио: lossless
Продолжительность: 58:33
Источник (релизер): свой фирменный диск
Наличие сканов в содержимом раздачи:
Треклист:
1 Corale 3:28
2 Intro to Koko 0:23
3 Koko 8:28
4 Intro to African Flower 1:59
5 African Flower 2:56
6 Intro to Black and Tan Fantasy* 1:18
7 Black and Tan Fantasy 7:23
8 Intro to Blue Pepper 1:31
9 Blue Pepper 6:10
10 A Flower Is a Lovesome Thing** 5:23
11 Intro to The Feeling of Jazz 1:52
12 The Feeling of Jazz 6:59
13 Carnegie Blues 7:04
14 Corale 1:08
15 Take the Coltrane 2:24
 
Лог создания рипа
Exact Audio Copy V1.0 beta 3 from 29. August 2011
EAC extraction logfile from 6. August 2013, 23:20
Riccardo Luppi Sextet / Homage To Duke Ellington
Used drive : PIONEER DVD-RW DVR-115D Adapter: 0 ID: 0
Read mode : Secure
Utilize accurate stream : Yes
Defeat audio cache : Yes
Make use of C2 pointers : No
Read offset correction : 48
Overread into Lead-In and Lead-Out : No
Fill up missing offset samples with silence : Yes
Delete leading and trailing silent blocks : No
Null samples used in CRC calculations : Yes
Used interface : Installed external ASPI interface
Gap handling : Appended to previous track
Used output format : User Defined Encoder
Selected bitrate : 896 kBit/s
Quality : High
Add ID3 tag : No
Command line compressor : C:\Program Files\Exact Audio Copy\FLAC\FLAC.EXE
Additional command line options : -6 -V -T "ARTIST=%artist%" -T "TITLE=%title%" -T "ALBUM=%albumtitle%" -T "DATE=%year%" -T "TRACKNUMBER=%tracknr%" -T "GENRE=%genre%" -T "COMMENT=%comment%" -T "BAND=%albuminterpret%" -T "COMPOSER=%composer%" %haslyrics%--tag-from-file=LYRICS="%lyricsfile%"%haslyrics% -T "DISCNUMBER=%cdnumber%" -T "TOTALDISCS=%totalcds%" -T "TOTALTRACKS=%numtracks%" %hascover%--picture="%coverfile%"%hascover% %source% -o %dest%
TOC of the extracted CD
Track | Start | Length | Start sector | End sector
---------------------------------------------------------
1 | 0:00.00 | 3:28.00 | 0 | 15599
2 | 3:28.00 | 0:23.67 | 15600 | 17391
3 | 3:51.67 | 8:28.25 | 17392 | 55516
4 | 12:20.17 | 1:59.10 | 55517 | 64451
5 | 14:19.27 | 2:56.55 | 64452 | 77706
6 | 17:16.07 | 1:18.68 | 77707 | 83624
7 | 18:35.00 | 7:23.47 | 83625 | 116896
8 | 25:58.47 | 1:31.33 | 116897 | 123754
9 | 27:30.05 | 6:10.30 | 123755 | 151534
10 | 33:40.35 | 5:23.30 | 151535 | 175789
11 | 39:03.65 | 1:52.50 | 175790 | 184239
12 | 40:56.40 | 6:59.45 | 184240 | 215709
13 | 47:56.10 | 7:04.50 | 215710 | 247559
14 | 55:00.60 | 1:08.27 | 247560 | 252686
15 | 56:09.12 | 2:24.55 | 252687 | 263541
Track 1
Filename D:\zzz\01 - Corale.wav
Pre-gap length 0:00:02.00
Peak level 99.9 %
Extraction speed 4.1 X
Track quality 100.0 %
Test CRC 0E2C47CB
Copy CRC 0E2C47CB
Track not present in AccurateRip database
Copy OK
Track 2
Filename D:\zzz\02 - Intro To Koko.wav
Peak level 99.9 %
Extraction speed 1.2 X
Track quality 99.5 %
Test CRC B8D350C3
Copy CRC B8D350C3
Track not present in AccurateRip database
Copy OK
Track 3
Filename D:\zzz\03 - Koko.wav
Peak level 99.9 %
Extraction speed 5.2 X
Track quality 100.0 %
Test CRC D2C385CA
Copy CRC D2C385CA
Track not present in AccurateRip database
Copy OK
Track 4
Filename D:\zzz\04 - Intro To African Flower.wav
Peak level 79.3 %
Extraction speed 4.8 X
Track quality 100.0 %
Test CRC 97A6934B
Copy CRC 97A6934B
Track not present in AccurateRip database
Copy OK
Track 5
Filename D:\zzz\05 - African Flower.wav
Peak level 99.9 %
Extraction speed 5.3 X
Track quality 100.0 %
Test CRC 2600D73C
Copy CRC 2600D73C
Track not present in AccurateRip database
Copy OK
Track 6
Filename D:\zzz\06 - Intro To Black And Tan Fantasy.wav
Peak level 99.9 %
Extraction speed 4.6 X
Track quality 100.0 %
Test CRC 926AA48A
Copy CRC 926AA48A
Track not present in AccurateRip database
Copy OK
Track 7
Filename D:\zzz\07 - Black And Tan Fantasy.wav
Peak level 99.9 %
Extraction speed 6.5 X
Track quality 100.0 %
Test CRC DE15C9A3
Copy CRC DE15C9A3
Track not present in AccurateRip database
Copy OK
Track 8
Filename D:\zzz\08 - Intro To Blue Pepper.wav
Peak level 90.7 %
Extraction speed 5.2 X
Track quality 100.0 %
Test CRC 398CBE3A
Copy CRC 398CBE3A
Track not present in AccurateRip database
Copy OK
Track 9
Filename D:\zzz\09 - Blue Pepper.wav
Peak level 99.9 %
Extraction speed 6.9 X
Track quality 100.0 %
Test CRC E8DE3E94
Copy CRC E8DE3E94
Track not present in AccurateRip database
Copy OK
Track 10
Filename D:\zzz\10 - A Flower Is A Lovesome Thing.wav
Peak level 70.0 %
Extraction speed 7.2 X
Track quality 100.0 %
Test CRC 23BA97A4
Copy CRC 23BA97A4
Track not present in AccurateRip database
Copy OK
Track 11
Filename D:\zzz\11 - Intro To The Feeling Of Jazz.wav
Peak level 99.9 %
Extraction speed 6.3 X
Track quality 100.0 %
Test CRC 7E7612C7
Copy CRC 7E7612C7
Track not present in AccurateRip database
Copy OK
Track 12
Filename D:\zzz\12 - The Feeling Of Jazz.wav
Peak level 99.9 %
Extraction speed 7.3 X
Track quality 99.9 %
Test CRC EC010BFD
Copy CRC EC010BFD
Track not present in AccurateRip database
Copy OK
Track 13
Filename D:\zzz\13 - Carnegie Blues.wav
Peak level 99.9 %
Extraction speed 8.2 X
Track quality 100.0 %
Test CRC 8B876BA4
Copy CRC 8B876BA4
Track not present in AccurateRip database
Copy OK
Track 14
Filename D:\zzz\14 - Corale.wav
Peak level 68.7 %
Extraction speed 4.4 X
Track quality 99.8 %
Test CRC 4128FBC2
Copy CRC 4128FBC2
Track not present in AccurateRip database
Copy OK
Track 15
Filename D:\zzz\15 - Take The Coltrane.wav
Peak level 99.9 %
Extraction speed 6.1 X
Track quality 99.9 %
Test CRC 7166E643
Copy CRC 7166E643
Track not present in AccurateRip database
Copy OK
None of the tracks are present in the AccurateRip database
No errors occurred
End of status report
==== Log checksum 6B194060AD797857087214683C93ED462E7C6C2FA177D900E88BC0A8A8F6F9C9 ====
 
Содержание индексной карты (.CUE)
REM GENRE "Free Jazz"
REM DATE 2002
REM DISCID AF0DB90F
REM COMMENT "ExactAudioCopy v1.0b3"
PERFORMER "Riccardo Luppi Sextet"
TITLE "Homage To Duke Ellington"
FILE "01 - Corale.wav" WAVE
TRACK 01 AUDIO
TITLE "Corale"
PERFORMER "Riccardo Luppi Sextet"
INDEX 01 00:00:00
FILE "02 - Intro To Koko.wav" WAVE
TRACK 02 AUDIO
TITLE "Intro To Koko"
PERFORMER "Riccardo Luppi Sextet"
INDEX 01 00:00:00
FILE "03 - Koko.wav" WAVE
TRACK 03 AUDIO
TITLE "Koko"
PERFORMER "Riccardo Luppi Sextet"
INDEX 01 00:00:00
FILE "04 - Intro To African Flower.wav" WAVE
TRACK 04 AUDIO
TITLE "Intro To African Flower"
PERFORMER "Riccardo Luppi Sextet"
INDEX 01 00:00:00
FILE "05 - African Flower.wav" WAVE
TRACK 05 AUDIO
TITLE "African Flower"
PERFORMER "Riccardo Luppi Sextet"
INDEX 01 00:00:00
FILE "06 - Intro To Black And Tan Fantasy.wav" WAVE
TRACK 06 AUDIO
TITLE "Intro To Black And Tan Fantasy"
PERFORMER "Riccardo Luppi Sextet"
INDEX 01 00:00:00
FILE "07 - Black And Tan Fantasy.wav" WAVE
TRACK 07 AUDIO
TITLE "Black And Tan Fantasy"
PERFORMER "Riccardo Luppi Sextet"
INDEX 01 00:00:00
FILE "08 - Intro To Blue Pepper.wav" WAVE
TRACK 08 AUDIO
TITLE "Intro To Blue Pepper"
PERFORMER "Riccardo Luppi Sextet"
INDEX 01 00:00:00
FILE "09 - Blue Pepper.wav" WAVE
TRACK 09 AUDIO
TITLE "Blue Pepper"
PERFORMER "Riccardo Luppi Sextet"
INDEX 01 00:00:00
FILE "10 - A Flower Is A Lovesome Thing.wav" WAVE
TRACK 10 AUDIO
TITLE "A Flower Is A Lovesome Thing"
PERFORMER "Riccardo Luppi Sextet"
INDEX 01 00:00:00
FILE "11 - Intro To The Feeling Of Jazz.wav" WAVE
TRACK 11 AUDIO
TITLE "Intro To The Feeling Of Jazz"
PERFORMER "Riccardo Luppi Sextet"
INDEX 01 00:00:00
FILE "12 - The Feeling Of Jazz.wav" WAVE
TRACK 12 AUDIO
TITLE "The Feeling Of Jazz"
PERFORMER "Riccardo Luppi Sextet"
INDEX 01 00:00:00
FILE "13 - Carnegie Blues.wav" WAVE
TRACK 13 AUDIO
TITLE "Carnegie Blues"
PERFORMER "Riccardo Luppi Sextet"
INDEX 01 00:00:00
FILE "14 - Corale.wav" WAVE
TRACK 14 AUDIO
TITLE "Corale"
PERFORMER "Riccardo Luppi Sextet"
INDEX 01 00:00:00
FILE "15 - Take The Coltrane.wav" WAVE
TRACK 15 AUDIO
TITLE "Take The Coltrane"
PERFORMER "Riccardo Luppi Sextet"
INDEX 01 00:00:00
 
Лог проверки качества
d:\>d:\aucdtect -d/-m0 d:\zzz\*.wav
auCDtect: CD records authenticity detector, version 0.8.2
Copyright (c) 2004 Oleg Berngardt. All rights reserved.
Copyright (c) 2004 Alexander Djourik. All rights reserved.
------------------------------------------------------------
Processing file: [01. Corale.wav]
------------------------------------------------------------
This track looks like CDDA with probability 100%
------------------------------------------------------------
Processing file: [02. Intro To Koko.wav]
------------------------------------------------------------
This track looks like CDDA with probability 100%
------------------------------------------------------------
Processing file: [03. Koko.wav]
------------------------------------------------------------
This track looks like CDDA with probability 100%
------------------------------------------------------------
Processing file: [04. Intro To African Flower.wav]
------------------------------------------------------------
This track looks like CDDA with probability 100%
------------------------------------------------------------
Processing file: [05. African Flower.wav]
------------------------------------------------------------
This track looks like CDDA with probability 100%
------------------------------------------------------------
Processing file: [06. Intro To Black And Tan Fantasy.wav]
------------------------------------------------------------
This track looks like CDDA with probability 92%
------------------------------------------------------------
Processing file: [07. Black And Tan Fantasy.wav]
------------------------------------------------------------
This track looks like CDDA with probability 100%
------------------------------------------------------------
Processing file: [08. Intro To Blue Pepper.wav]
------------------------------------------------------------
This track looks like CDDA with probability 100%
------------------------------------------------------------
Processing file: [09. Blue Pepper.wav]
------------------------------------------------------------
This track looks like CDDA with probability 100%
------------------------------------------------------------
Processing file: [10. A Flower Is A Lovesome Thing.wav]
------------------------------------------------------------
This track looks like CDDA with probability 100%
------------------------------------------------------------
Processing file: [11. Intro To The Feeling Of Jazz.wav]
------------------------------------------------------------
This track looks like CDDA with probability 100%
------------------------------------------------------------
Processing file: [12. The Feeling Of Jazz.wav]
------------------------------------------------------------
This track looks like CDDA with probability 100%
------------------------------------------------------------
Processing file: [13. Carnegie Blues.wav]
------------------------------------------------------------
This track looks like CDDA with probability 100%
------------------------------------------------------------
Processing file: [14. Corale.wav]
------------------------------------------------------------
This track looks like CDDA with probability 100%
------------------------------------------------------------
Processing file: [15. Take The Coltrane.wav]
------------------------------------------------------------
This track looks like CDDA with probability 99%
------------------------------------------------------------
Final Conclusion:
------------------------------------------------------------
These tracks looks like CDDA with probability 100%
Доп. информация:
 
Album Info
(Riccardo Luppi) - 1,2,4,6,8,11,14
(Duke Ellington) - 3,5,7,9,12,13,15
(Billy Strayhorn) - 10
Arrangements by Riccardo Luppi
*The Tuba "riff" is from the Arthur Blythe's beautiful tune "Odessa"
** as played by Roland Kirk on "Left And Right"
Recorded on May 2002 at TALA Studio, Milano
Engineers: Riccardo Luppi, Roberto Cecchetto
Mastered at Disctronics, Tribiano Milano
Engineer: Aldo Borrelli
Producer: Riccardo Luppi
Executive Producer: Flavio Bonandrini
Cover Painting: Ariel Soule, "Giorno Di Pioggia", olio su tela 200x200 cm
Cover Art: Maria Bonandrini
 
Состав
Riccardo Luppi: piccolo, G flute, flute, soprano, alto and tenor sax
Daniele Cavallanti: baritone sax, naj flute
Beppe Caruso: trombone
Roberto Cecchetto: guitar and electronics
Paolino Dalla Porta: bass
Tiziano Tononi: drums, percussion
По всем вопросам пишите личное сообщение пользователю M0p94ok.
16:55
230
Нет комментариев. Ваш будет первым!