Вы используете незарегистрированную версию компонента "Вкладки"!

Поиск

(Avant-Garde, Vocal) Erika Stucky - Stucky Live 1985-2010 - 2011, FLAC (tracks+.cue), lossless

(Avant-Garde, Vocal) Erika Stucky - Stucky Live 1985-2010 - 2011, FLAC (tracks+.cue), lossless
Треклист:
Erika Stucky / Stucky Live 1985-2010
Жанр: Avant-Garde, Vocal
Страна-производитель диска: Germany
Год издания: 2011
Издатель (лейбл): Traumton Records
Номер по каталогу: 4548
Аудиокодек: FLAC (*.flac)
Тип рипа: tracks+.cue
Битрейт аудио: lossless
Продолжительность: 1:04:56
Источник (релизер): Max Monteiro
Наличие сканов в содержимом раздачи: нет
Треклист:
01. The Ballroom Blitz (The Sweet) 4:21
02. Why (Annie Lennox) 4:36
03. Afro Blue (John Coltrane) 3:22
04. Kashmir (Led Zeppelin) 4:01
05. I’m the Slime (Frank Zappa) 6:30
06. Swim (Stucky, Ray Anderson) 2:11
07. Gimme Shelter (The Rolling Stones) 6:11
08. My Sharona (The Knack) 3:54
09. Agly (Erika Stucky) 5:06
10. You Are My Sunshine (Davis, Mitchell) 6:29
11. Baby One More Time (Britney Spears) 3:55
12. Black Dog [Starquality] (Led Zeppelin / Stucky) 3:05
13. I Put a Spell on You (Screamin’ Jay Hawkins) 3:57
14. Que sera (Doris Day) 0:31
15. Lose Yourself (Eminem) 4:20
16. You Belong to Me (Patsy Cline) 2:25
« Ballroom Blitz », « Swim », « Baby One More Time », « Che sera » recorded October 2002 at WDR, « Klaus-von-Bismarck-Saal », Köln, Germany.
« You Are My Sunshine » : WDR Big Band Köln & George Gruntz John Riley (drums) recorded October 1999 at Philarmonie, Köln, Germany.
 
Лог создания рипа
Exact Audio Copy V1.0 beta 3 from 29. August 2011
EAC extraction logfile from 2. August 2013, 23:30
Erika Stucky / Stucky Live 1985-2010
Used drive : SlimtypeeNAU508 5 Adapter: 1 ID: 0
Read mode : Secure
Utilize accurate stream : Yes
Defeat audio cache : Yes
Make use of C2 pointers : No
Read offset correction : 6
Overread into Lead-In and Lead-Out : No
Fill up missing offset samples with silence : Yes
Delete leading and trailing silent blocks : No
Null samples used in CRC calculations : Yes
Used interface : Native Win32 interface for Win NT & 2000
Gap handling : Appended to previous track
Used output format : User Defined Encoder
Selected bitrate : 768 kBit/s
Quality : High
Add ID3 tag : No
Command line compressor : C:\Program Files (x86)\Exact Audio Copy\Flac\flac.exe
Additional command line options : -8 -V -T "ARTIST=%artist%" -T "TITLE=%title%" -T "ALBUM=%albumtitle%" -T "DATE=%year%" -T "TRACKNUMBER=%tracknr%" -T "GENRE=%genre%" -T "PERFORMER=%albuminterpret%" -T "COMPOSER=%composer%" %haslyrics%--tag-from-file=LYRICS="%lyricsfile%"%haslyrics% -T "ALBUMARTIST=%albumartist%" -T "DISCNUMBER=%cdnumber%" -T "TOTALDISCS=%totalcds%" -T "TOTALTRACKS=%numtracks%" -T "COMMENT=%comment%" %source% -o %dest%
TOC of the extracted CD
Track | Start | Length | Start sector | End sector
---------------------------------------------------------
1 | 0:00.00 | 4:20.67 | 0 | 19566
2 | 4:20.67 | 4:35.67 | 19567 | 40258
3 | 8:56.59 | 3:22.31 | 40259 | 55439
4 | 12:19.15 | 4:01.36 | 55440 | 73550
5 | 16:20.51 | 6:29.53 | 73551 | 102778
6 | 22:50.29 | 2:11.23 | 102779 | 112626
7 | 25:01.52 | 6:11.28 | 112627 | 140479
8 | 31:13.05 | 3:54.01 | 140480 | 158030
9 | 35:07.06 | 5:06.36 | 158031 | 181016
10 | 40:13.42 | 6:28.73 | 181017 | 210189
11 | 46:42.40 | 3:55.13 | 210190 | 227827
12 | 50:37.53 | 3:05.19 | 227828 | 241721
13 | 53:42.72 | 3:57.33 | 241722 | 259529
14 | 57:40.30 | 0:30.59 | 259530 | 261838
15 | 58:11.14 | 4:19.56 | 261839 | 281319
16 | 62:30.70 | 2:25.03 | 281320 | 292197
Track 1
Filename C:\EAC rips\01 - The Ballroom Blitz.wav
Pre-gap length 0:00:02.00
Peak level 96.6 %
Extraction speed 2.3 X
Track quality 100.0 %
Test CRC 5D63FBDA
Copy CRC 5D63FBDA
Track not present in AccurateRip database
Copy OK
Track 2
Filename C:\EAC rips\02 - Why.wav
Peak level 96.2 %
Extraction speed 2.2 X
Track quality 99.9 %
Test CRC 9E8A7CFD
Copy CRC 9E8A7CFD
Track not present in AccurateRip database
Copy OK
Track 3
Filename C:\EAC rips\03 - Afro Blue.wav
Peak level 96.2 %
Extraction speed 2.6 X
Track quality 100.0 %
Test CRC 2F3F3216
Copy CRC 2F3F3216
Track not present in AccurateRip database
Copy OK
Track 4
Filename C:\EAC rips\04 - Kashmir.wav
Peak level 96.2 %
Extraction speed 2.9 X
Track quality 100.0 %
Test CRC 73A242F1
Copy CRC 73A242F1
Track not present in AccurateRip database
Copy OK
Track 5
Filename C:\EAC rips\05 - I'm the Slime.wav
Peak level 96.2 %
Extraction speed 3.3 X
Track quality 100.0 %
Test CRC 58A9B54F
Copy CRC 58A9B54F
Track not present in AccurateRip database
Copy OK
Track 6
Filename C:\EAC rips\06 - Swim.wav
Peak level 96.2 %
Extraction speed 2.9 X
Track quality 100.0 %
Test CRC 7D615CD8
Copy CRC 7D615CD8
Track not present in AccurateRip database
Copy OK
Track 7
Filename C:\EAC rips\07 - Gimme Shelter.wav
Peak level 96.4 %
Extraction speed 3.6 X
Track quality 100.0 %
Test CRC BD4C2C73
Copy CRC BD4C2C73
Track not present in AccurateRip database
Copy OK
Track 8
Filename C:\EAC rips\08 - My Sharona.wav
Peak level 96.6 %
Extraction speed 2.9 X
Track quality 99.9 %
Test CRC 480F36FF
Copy CRC 480F36FF
Track not present in AccurateRip database
Copy OK
Track 9
Filename C:\EAC rips\09 - Agly.wav
Peak level 96.2 %
Extraction speed 3.9 X
Track quality 100.0 %
Test CRC 495995E6
Copy CRC 495995E6
Track not present in AccurateRip database
Copy OK
Track 10
Filename C:\EAC rips\10 - You Are My Sunshine.wav
Peak level 96.6 %
Extraction speed 4.2 X
Track quality 100.0 %
Test CRC 07DF4A77
Copy CRC 07DF4A77
Track not present in AccurateRip database
Copy OK
Track 11
Filename C:\EAC rips\11 - Baby One More Time.wav
Peak level 96.2 %
Extraction speed 4.1 X
Track quality 100.0 %
Test CRC 3EC1B505
Copy CRC 3EC1B505
Track not present in AccurateRip database
Copy OK
Track 12
Filename C:\EAC rips\12 - Black Dog [Starquality].wav
Peak level 96.2 %
Extraction speed 3.2 X
Track quality 99.9 %
Test CRC 7B6F094C
Copy CRC 7B6F094C
Track not present in AccurateRip database
Copy OK
Track 13
Filename C:\EAC rips\13 - I Put a Spell on You.wav
Peak level 96.2 %
Extraction speed 4.3 X
Track quality 100.0 %
Test CRC 0C2BEAC1
Copy CRC 0C2BEAC1
Track not present in AccurateRip database
Copy OK
Track 14
Filename C:\EAC rips\14 - Que sera.wav
Peak level 35.9 %
Extraction speed 2.2 X
Track quality 100.0 %
Test CRC E80128EE
Copy CRC E80128EE
Track not present in AccurateRip database
Copy OK
Track 15
Filename C:\EAC rips\15 - Loe Yourself.wav
Peak level 96.2 %
Extraction speed 4.5 X
Track quality 100.0 %
Test CRC 61D0FBF3
Copy CRC 61D0FBF3
Track not present in AccurateRip database
Copy OK
Track 16
Filename C:\EAC rips\16 - You Belong to Me.wav
Peak level 96.2 %
Extraction speed 4.2 X
Track quality 100.0 %
Test CRC AAEA2B1C
Copy CRC AAEA2B1C
Track not present in AccurateRip database
Copy OK
None of the tracks are present in the AccurateRip database
No errors occurred
End of status report
---- CUETools DB Plugin V2.1.4
[CTDB TOCID: uhDkCr0WkItEiIUYJVIxinZB9.A-] database access error: Il existe une erreur dans le document XML (2, 2).
==== Log checksum 39573253B9716E638A495F4A757B0F384A6809BFB40E6096F013E2F8061D234F ====
 
Содержание индексной карты (.CUE)
REM GENRE Jazz
REM DATE 2011
REM DISCID D90F3710
REM COMMENT "ExactAudioCopy v1.0b3"
CATALOG 0705304454824
PERFORMER "Erika Stucky"
TITLE "Stucky Live 1985-2010"
FILE "01 - The Ballroom Blitz.wav" WAVE
TRACK 01 AUDIO
TITLE "The Ballroom Blitz"
PERFORMER "Erika Stucky"
ISRC DEE131013401
INDEX 01 00:00:00
FILE "02 - Why.wav" WAVE
TRACK 02 AUDIO
TITLE "Why"
PERFORMER "Erika Stucky"
ISRC DEE131013402
INDEX 01 00:00:00
FILE "03 - Afro Blue.wav" WAVE
TRACK 03 AUDIO
TITLE "Afro Blue"
PERFORMER "Erika Stucky"
ISRC DEE131013403
INDEX 01 00:00:00
FILE "04 - Kashmir.wav" WAVE
TRACK 04 AUDIO
TITLE "Kashmir"
PERFORMER "Erika Stucky"
ISRC DEE131013404
INDEX 01 00:00:00
FILE "05 - I'm the Slime.wav" WAVE
TRACK 05 AUDIO
TITLE "I'm the Slime"
PERFORMER "Erika Stucky"
ISRC DEE131013405
INDEX 01 00:00:00
FILE "06 - Swim.wav" WAVE
TRACK 06 AUDIO
TITLE "Swim"
PERFORMER "Erika Stucky"
ISRC DEE131013406
INDEX 01 00:00:00
FILE "07 - Gimme Shelter.wav" WAVE
TRACK 07 AUDIO
TITLE "Gimme Shelter"
PERFORMER "Erika Stucky"
ISRC DEE131013407
INDEX 01 00:00:00
FILE "08 - My Sharona.wav" WAVE
TRACK 08 AUDIO
TITLE "My Sharona"
PERFORMER "Erika Stucky"
ISRC DEE131013408
INDEX 01 00:00:00
FILE "09 - Agly.wav" WAVE
TRACK 09 AUDIO
TITLE "Agly"
PERFORMER "Erika Stucky"
ISRC DEE131013409
INDEX 01 00:00:00
FILE "10 - You Are My Sunshine.wav" WAVE
TRACK 10 AUDIO
TITLE "You Are My Sunshine"
PERFORMER "Erika Stucky"
ISRC DEE131013410
INDEX 01 00:00:00
FILE "11 - Baby One More Time.wav" WAVE
TRACK 11 AUDIO
TITLE "Baby One More Time"
PERFORMER "Erika Stucky"
ISRC DEE131013411
INDEX 01 00:00:00
FILE "12 - Black Dog [Starquality].wav" WAVE
TRACK 12 AUDIO
TITLE "Black Dog [Starquality]"
PERFORMER "Erika Stucky"
ISRC DEE131013412
INDEX 01 00:00:00
FILE "13 - I Put a Spell on You.wav" WAVE
TRACK 13 AUDIO
TITLE "I Put a Spell on You"
PERFORMER "Erika Stucky"
ISRC DEE131013413
INDEX 01 00:00:00
FILE "14 - Que sera.wav" WAVE
TRACK 14 AUDIO
TITLE "Que sera"
PERFORMER "Erika Stucky"
ISRC DEE131013414
INDEX 01 00:00:00
FILE "15 - Loe Yourself.wav" WAVE
TRACK 15 AUDIO
TITLE "Loe Yourself"
PERFORMER "Erika Stucky"
ISRC DEE131013415
INDEX 01 00:00:00
FILE "16 - You Belong to Me.wav" WAVE
TRACK 16 AUDIO
TITLE "You Belong to Me"
PERFORMER "Erika Stucky"
ISRC DEE131013416
INDEX 01 00:00:00
 
Состав
Ray Anderson
Art Baron
Jon Sass
Matt Perrine
George Gruntz
Earl McIntyre
Lucas Niggli
Bertl Mütter
Martin Schumacher
The Sophisticrats
Luli Burgauer
Roli Hartung
Marco Raoult
Robert Morgenthaler
Knut Jensen
Peter Horisberger
J.-J. Pedretti
Netna Kisum
WDR Big Band
Hansueli Tischhauser
По всем вопросам пишите личное сообщение пользователю M0p94ok.
16:59
156
Нет комментариев. Ваш будет первым!