Вы используете незарегистрированную версию компонента "Вкладки"!

Поиск

(Experimental Big Band, Modern Creative) Pierre Dorge & New Jungle Orchestra - Very hot - Even the moon is dancing - 1985, FLAC (image+.cue), lossless

(Experimental Big Band, Modern Creative) Pierre Dorge & New Jungle Orchestra - Very hot - Even the moon is dancing - 1985, FLAC (image+.cue), lossless
Треклист:
Pierre Dorge & New Jungle Orchestra / Very hot - Even the moon is dancing
Жанр: Experimental Big Band, Modern Creative
Страна-производитель диска: Denmark/USA
Год издания: 1985
Издатель (лейбл): SteepleChase
Номер по каталогу: SCCD-31208
Страна: Denmark | Дания
Аудиокодек: FLAC (*.flac)
Тип рипа: image+.cue
Битрейт аудио: lossless
Продолжительность: 01:09:04
Источник (релизер): Alfabeta via Theloniousmelodius
Наличие сканов в содержимом раздачи: да
Треклист:
01. The Mooche
02. Suhu Ning Samo
03. Bambla Jolifanto
04. Very Hot / Autobahn Tchicai
05. Mirjams Dadadance
06. A Rose for Laurent
07. Even the Moon Is Dancing
 
Состав
Pierre Dørge (conductor, guitar, ballophon, vocal)
Harry Becket (trumpet, flugelhorn)
Kenneth Agerholm (trombone, african horn)
Morten Carlsen (tenorsax, neyflute, taragot, bass sax, clarinat, istanbul zurna)
John Tchicai (tenorsax, vocal)
Doudou Gouirand (altosax, sopranosax)
Søren Eriksen (altosax, sopranosax)
Jesper Zeuthen (altsax)
Irene Becker (keyboards, caxixi, vocal)
Bent Clausen (vibraphone, sirene, percussion)
Hugo Rasmussen (bass)
Johnny "Mbizo" Dyani (talking bass, piane, vocal)
Marilyn Mazur (drums, bells, kalimba)
Ahmadu Jarr (african drums, percussion, train flute)
Ken Day (guide in the jungle)
 
Об исполнителе (группе)
 
Об альбоме
Review by Brian Olewnick
In a similar vein as Norwegian drummer Bengt Berger's earlier releases, Danish guitarist Pierre Dorge marries contemporary jazz improvisers of a free-ish bent with melodic ideas stemming from West African music, particularly that of Ghana. Dorge also folds in certain aspects of early jazz (Ellington's "The Mooche" is covered here) and, when everything works, the result can be intoxicating. On "Suho Ning Samo," an irresistibly infectious melody is buttressed by fine solo work from Morten Carlsen on tarogato and the leader's clear, singing, immediately recognizable guitar, the sound of which appears to owe something to African kora players. The title track also works well as a strong framework for the soloists, with punchy horn riffs supporting able contributions from altoist Jesper Zeuthen and deep ruminations from the great South African bassist Johnny Dyani. When things bog down, it tends to be for lack of rhythmic drive. Unlike Berger, who utilized a stable of fiery percussionists, the drumming on this record, when uninspired by a great melody, becomes lackluster and dragging. Still, the plusses outweigh the negatives and, overall, this is perhaps Dorge's finest release with a large ensemble.
 
Лог создания рипа
Exact Audio Copy V0.99 prebeta 4 from 23. January 2008
Отчёт EAC об извлечении, выполненном 10. октября 2009, 20:42
Pierre Dшrge & New Jungle Orchestra / Very hot - Even the moon is dancing
Дисковод: Optiarc DVD RW AD-7200S Adapter: 4 ID: 0
Режим чтения : Достоверность
Использование точного потока : Да
Отключение кэша аудио : Да
Использование указателей C2 : Нет
Коррекция смещения при чтении : 48
Способность читать области Lead-in и Lead-out : Нет
Заполнение пропущенных сэмплов тишиной : Да
Удаление блоков с тишиной в начале и конце : Нет
При вычислениях CRC использовались нулевые сэмплы : Да
Интерфейс : Встроенный Win32-интерфейс для Win NT/2000
Выходной формат : Внутренние WAV-операции
Формат сэмплов : 44.100 Гц; 16 бит; стерео
TOC извлечённого CD
Трек | Старт | Длительность | Начальный сектор | Конечный сектор
---------------------------------------------------------------------
1 | 0:00.32 | 5:37.55 | 32 | 25361
2 | 5:38.12 | 8:23.10 | 25362 | 63096
3 | 14:01.22 | 8:46.05 | 63097 | 102551
4 | 22:47.27 | 17:57.38 | 102552 | 183364
5 | 40:44.65 | 6:13.50 | 183365 | 211389
6 | 46:58.40 | 5:26.10 | 211390 | 235849
7 | 52:24.50 | 16:39.70 | 235850 | 310844
Характеристики диапазона извлечения и сообщения об ошибках
Выбранный диапазон
Имя файла D:\Music internet\Раздачи\Pierre Dшrge & New Jungle Orchestra - Very hot - Even the moon is dancing\Pierre Dшrge & New Jungle Orchestra - Very hot - Even the moon is dancing.wav
Пиковый уровень 100.0 %
Качество диапазона 99.9 %
CRC копии 9D11ACAE
Копирование... OK
Ошибок не произошло
AccurateRip: сводка
Трек 1 нет в базе данных
Трек 2 нет в базе данных
Трек 3 нет в базе данных
Трек 4 нет в базе данных
Трек 5 нет в базе данных
Трек 6 нет в базе данных
Трек 7 нет в базе данных
Ни одного трека нет в базе AccurateRip
Конец отчёта
 
Содержание индексной карты (.CUE)
REM GENRE Jazz
REM DATE 1985
REM DISCID 55103007
REM COMMENT ExactAudioCopy v0.99pb4
PERFORMER "Pierre Dorge & New Jungle Orchestra"
TITLE "Very hot - Even the moon is dancing"
FILE "Pierre Dorge New Jungle Orchestra - 1985 - Even the moon is dancing.flac" WAVE
TRACK 01 AUDIO
TITLE "The Mooche"
INDEX 01 00:00:00
TRACK 02 AUDIO
TITLE "Suho Ning Samo"
INDEX 01 05:37:55
TRACK 03 AUDIO
TITLE "Bambla Jolifanti"
INDEX 01 14:00:65
TRACK 04 AUDIO
TITLE "Very hot/Autobahn Tchicai"
INDEX 01 22:46:70
TRACK 05 AUDIO
TITLE "Mirjam's Dadadance"
INDEX 01 40:44:33
TRACK 06 AUDIO
TITLE "A rose for Laurent"
INDEX 01 46:58:08
TRACK 07 AUDIO
TITLE "Even the moon is dancing"
INDEX 01 52:24:18
 
Лог проверки качества
-----------------------
DON'T MODIFY THIS FILE
-----------------------
PERFORMER: auCDtect Task Manager, ver. 1.5.1RC6 build 1.5.1.7
Copyright (c) 2008-2010 y-soft. All rights reserved
http://y-soft.org
ANALYZER: auCDtect: CD records authenticity detector, version 0.8.2
Copyright (c) 2004 Oleg Berngardt. All rights reserved.
Copyright (c) 2004 Alexander Djourik. All rights reserved.
FILE: Pierre Dorge & New Jungle Orchestra - Very hot - Even the moon is dancing.wav
Size: 731032576 Hash: FEEF49BFFC62197F5DCF6C305649990C Accuracy: -m0
Conclusion: MPEG 95%
Signature: C795F7F1CC37B9039795E8B8747CC0441D9FEB63
FILE: 07. Even the moon is dancing.flac
Size: 87760557 Hash: D1212540C27AAFFC7228F01337B2107B Accuracy: -m0
Conclusion: CDDA 100%
Signature: D7A8E3BD3C97E9ABC6A91A645895CC24B452DCF8
FILE: 06. A rose for Laurent.flac
Size: 24810904 Hash: 08B7F130730E0E7CC2676086DF8D44B3 Accuracy: -m0
Conclusion: CDDA 100%
Signature: C2DDB0179D92B86F480CE74B0288EDD26A2D47EC
FILE: 05. Mirjam's Dadadance.flac
Size: 30542325 Hash: 3F847E30AD94EDDB31711D9A84E0969F Accuracy: -m0
Conclusion: CDDA 100%
Signature: C0373A8C9EF71CECC2E337C7F6AC46A7C0DE4B61
FILE: 04. Very hot-Autobahn Tchicai.flac
Size: 87372543 Hash: 367C84FE471B884E13D52672B23BA266 Accuracy: -m0
Conclusion: CDDA 100%
Signature: 64C9A7CC1E05D1261AAC3A7A2735276272932BD8
FILE: 03. Bambla Jolifanti.flac
Size: 50124863 Hash: BB4834A64FD86156A5B8D3D8FA94F27A Accuracy: -m0
Conclusion: CDDA 100%
Signature: A728580607C3FBD99BDE0C5C04254FFC859678D6
FILE: 02. Suho Ning Samo.flac
Size: 55773640 Hash: 4EDA9B1BC46998B61C71F8D4A12F4CDA Accuracy: -m0
Conclusion: CDDA 100%
Signature: 01972552B81DDA569BAB804D3A07FA947456C211
FILE: 01. The Mooche.flac
Size: 28841487 Hash: E01199F496330218B58DE3199B078903 Accuracy: -m0
Conclusion: CDDA 100%
Signature: 468F2D9C52991337E5FEBAD5C22AB9A7C260503D
 
Скриншот спектра частот
Доп. информация: Конвертировал образ из APE во FLAC (foobar2000)
Any questions -> support@pro-jazz.com. По всем вопросам пишите -> support@pro-jazz.com
17:00
148
Нет комментариев. Ваш будет первым!