Вы используете незарегистрированную версию компонента "Вкладки"!

Поиск

(free jazz) David S. Ware Trio - Passage to Music 1988, FLAC (tracks+.cue), lossless

(free jazz) David S. Ware Trio - Passage to Music 1988, FLAC (tracks+.cue), lossless
Треклист:


David S. Ware Trio - Passage to Music 1988

Жанр: free jazz
Год выпуска: 1988
Издатель (лейбл):silkheart SHCD113
Формат: FLAC (tracks+.cue)
Битрейт аудио: lossless
Продолжительность 1`09`28
Источник: what.cd
David S. Ware tenor sax, saxello, stritch
William Parker bass
Marc Edwards drums

tracks

1. An Ancient Formula 6:00
2. Ancient Visitors 7:30
3. Passage to Music 10:46
4. African Secrets 10:47
5. The Elders Path 13:20
6. Phonetic Hymn 9:00
7. Mystery 11:43


 
.log
CUERipper v2.1.2 Copyright (C) 2008-10 Gregory S. Chudov
EAC extraction logfile from 19. October 2012, 9:18
David S. Ware Trio / Passage to Music
Used drive : PLDS DVD-RW DH16ABSH Adapter: 1 ID: 0
Read mode : Secure
Utilize accurate stream : Yes
Defeat audio cache : Yes
Make use of C2 pointers : No
Read offset correction : 6
Overread into Lead-In and Lead-Out : No
Fill up missing offset samples with silence : Yes
Delete leading and trailing silent blocks : No
Null samples used in CRC calculations : Yes
Used interface : Native Win32 interface for Win NT & 2000
Gap handling : Appended to previous track
Used output format : Internal WAV Routines
Sample format : 44.100 Hz; 16 Bit; Stereo
TOC of the extracted CD
Track | Start | Length | Start sector | End sector
---------------------------------------------------------
1 | 0:00.00 | 5:50.25 | 0 | 26274
2 | 5:50.25 | 7:35.25 | 26275 | 60424
3 | 13:25.50 | 10:51.45 | 60425 | 109294
4 | 24:17.20 | 10:52.22 | 109295 | 158216
5 | 35:09.42 | 13:24.63 | 158217 | 218579
6 | 48:34.30 | 9:06.40 | 218580 | 259569
7 | 57:40.70 | 11:47.27 | 259570 | 312621
Track 1
Filename C:\Users\Eric\Music\David S. Ware Trio\1995 - Passage to Music\01. An Ancient Formula.wav
Pre-gap length 0:00:02.00
Peak level 65.1 %
Track quality 100.0 %
Test CRC 17347016
Copy CRC 17347016
Accurately ripped (confidence 2) [931B2EDB]
Copy OK
Track 2
Filename C:\Users\Eric\Music\David S. Ware Trio\1995 - Passage to Music\02. Ancient Visitors.wav
Pre-gap length 0:00:03.44
Peak level 54.8 %
Track quality 100.0 %
Test CRC 32C8CB5B
Copy CRC 32C8CB5B
Accurately ripped (confidence 2) [3CB6A2D4]
Copy OK
Track 3
Filename C:\Users\Eric\Music\David S. Ware Trio\1995 - Passage to Music\03. Passage to Music.wav
Pre-gap length 0:00:02.86
Peak level 87.6 %
Track quality 100.0 %
Test CRC 80A37200
Copy CRC 80A37200
Accurately ripped (confidence 2) [F7418EBB]
Copy OK
Track 4
Filename C:\Users\Eric\Music\David S. Ware Trio\1995 - Passage to Music\04. African Secrets.wav
Pre-gap length 0:00:04.64
Peak level 69.7 %
Track quality 100.0 %
Test CRC DADCB089
Copy CRC DADCB089
Accurately ripped (confidence 2) [FB5AFC17]
Copy OK
Track 5
Filename C:\Users\Eric\Music\David S. Ware Trio\1995 - Passage to Music\05. The Elders Path.wav
Pre-gap length 0:00:03.69
Peak level 85.8 %
Track quality 100.0 %
Test CRC 117FC0C8
Copy CRC 117FC0C8
Accurately ripped (confidence 2) [AC8A6F1F]
Copy OK
Track 6
Filename C:\Users\Eric\Music\David S. Ware Trio\1995 - Passage to Music\06. Phonetic Hymn.wav
Pre-gap length 0:00:02.06
Peak level 71.5 %
Track quality 100.0 %
Test CRC 76760BBC
Copy CRC 76760BBC
Accurately ripped (confidence 2) [9CDCE642]
Copy OK
Track 7
Filename C:\Users\Eric\Music\David S. Ware Trio\1995 - Passage to Music\07. Mystery.wav
Pre-gap length 0:00:04.60
Peak level 84.5 %
Track quality 100.0 %
Test CRC 1F54B14E
Copy CRC 1F54B14E
Accurately ripped (confidence 2) [E55346B1]
Copy OK
All tracks accurately ripped
No errors occurred
End of status report
 
.cue
REM ACCURATERIPID 00117898-006c3551-54104807
REM DISCID 54104807
REM COMMENT "ExactAudioCopy v0.99pb4"
PERFORMER "David S. Ware Trio"
TITLE "Passage to Music"
CATALOG 0000000000000
REM DATE 1995
REM DISCNUMBER 1
REM TOTALDISCS 1
FILE "01. An Ancient Formula.flac" WAVE
TRACK 01 AUDIO
PERFORMER "David S. Ware Trio"
TITLE "An Ancient Formula"
INDEX 01 00:00:00
TRACK 02 AUDIO
PERFORMER "David S. Ware Trio"
TITLE "Ancient Visitors"
INDEX 00 05:46:67
FILE "02. Ancient Visitors.flac" WAVE
INDEX 01 00:00:00
TRACK 03 AUDIO
PERFORMER "David S. Ware Trio"
TITLE "Passage to Music"
INDEX 00 07:32:35
FILE "03. Passage to Music.flac" WAVE
INDEX 01 00:00:00
TRACK 04 AUDIO
PERFORMER "David S. Ware Trio"
TITLE "African Secrets"
INDEX 00 10:46:72
FILE "04. African Secrets.flac" WAVE
INDEX 01 00:00:00
TRACK 05 AUDIO
PERFORMER "David S. Ware Trio"
TITLE "The Elders Path"
INDEX 00 10:48:45
FILE "05. The Elders Path.flac" WAVE
INDEX 01 00:00:00
TRACK 06 AUDIO
PERFORMER "David S. Ware Trio"
TITLE "Phonetic Hymn"
INDEX 00 13:22:58
FILE "06. Phonetic Hymn.flac" WAVE
INDEX 01 00:00:00
TRACK 07 AUDIO
PERFORMER "David S. Ware Trio"
TITLE "Mystery"
INDEX 00 09:01:70
FILE "07. Mystery.flac" WAVE
INDEX 01 00:00:00
 
.accurip
[CUETools log; Date: 10/19/2012 9:18:36 AM; Version: 2.1.2a]
[CTDB TOCID: U_GwVvQk2MyPYkVv6G4nDXlCUnw-] found.
[ CTDBID ] Status
[a8ab83fb] (1/1) Accurately ripped
[AccurateRip ID: 00117898-006c3551-54104807] found.
Track [ CRC ] Status
01 [931b2edb] (2/2) Accurately ripped
02 [3cb6a2d4] (2/2) Accurately ripped
03 [f7418ebb] (2/2) Accurately ripped
04 [fb5afc17] (2/2) Accurately ripped
05 [ac8a6f1f] (2/2) Accurately ripped
06 [9cdce642] (2/2) Accurately ripped
07 [e55346b1] (2/2) Accurately ripped
Track Peak [ CRC32 ] [W/O NULL]
-- 87.6 [4E2C0739] [5701BB33]
01 65.1 [17347016] [A6E05C0A]
02 54.8 [32C8CB5B] [30C5F313]
03 87.6 [80A37200] [7268D0EB]
04 69.7 [DADCB089] [81B4A933]
05 85.8 [117FC0C8] [6B14DB04]
06 71.5 [76760BBC] [5BA08228]
07 84.5 [1F54B14E] [D25BDDC7]

другие релизы
Any questions -> support@pro-jazz.com. По всем вопросам пишите -> support@pro-jazz.com
04:26
141
Нет комментариев. Ваш будет первым!