Вы используете незарегистрированную версию компонента "Вкладки"!

Поиск

(avant-garde) David S. Ware Quartet - Great Bliss, Volume 2 1990, FLAC (tracks+.cue), lossless

(avant-garde) David S. Ware Quartet - Great Bliss, Volume 2 1990, FLAC (tracks+.cue), lossless
Треклист:


David S. Ware Quartet - Great Bliss, Volume 2 1990

Жанр: avant-garde
Год выпуска: 1990
Издатель (лейбл): silkheart SHCD128
Формат: FLAC (tracks+.cue)
Битрейт аудио: lossless
Продолжительность 1`12`04
Источник: what.cd
David S. Ware flute, tenor sax, saxello, stritch
Matthew Shipp piano
William Parker bass
Marc Edwards drums, tympany, chimes, gongs

tracks

1. One Two Three 12:00
2. Emptiness 4:00
3. Primary Piece III 8:30
4. Saxelloscape Two 5:00
5. The Child Without - The Child Within 10:50
6. Stritchland 12:15
7. Low Strata 6:20
8. Reign of Peace 11:00
Total time: 69:55


 
.log
CUERipper v2.1.2 Copyright (C) 2008-10 Gregory S. Chudov
EAC extraction logfile from 19. October 2012, 9:31
David S. Ware / Great Bliss, Volume 2
Used drive : PLDS DVD-RW DH16ABSH Adapter: 1 ID: 0
Read mode : Secure
Utilize accurate stream : Yes
Defeat audio cache : Yes
Make use of C2 pointers : No
Read offset correction : 6
Overread into Lead-In and Lead-Out : No
Fill up missing offset samples with silence : Yes
Delete leading and trailing silent blocks : No
Null samples used in CRC calculations : Yes
Used interface : Native Win32 interface for Win NT & 2000
Gap handling : Appended to previous track
Used output format : Internal WAV Routines
Sample format : 44.100 Hz; 16 Bit; Stereo
TOC of the extracted CD
Track | Start | Length | Start sector | End sector
---------------------------------------------------------
1 | 0:00.33 | 12:28.20 | 33 | 56152
2 | 12:28.53 | 4:20.60 | 56153 | 75712
3 | 16:49.38 | 8:18.62 | 75713 | 113124
4 | 25:08.25 | 5:30.65 | 113125 | 137939
5 | 30:39.15 | 11:28.43 | 137940 | 189582
6 | 42:07.58 | 12:36.55 | 189583 | 246337
7 | 54:44.38 | 6:10.00 | 246338 | 274087
8 | 60:54.38 | 11:10.15 | 274088 | 324352
Track 1
Filename C:\Users\Eric\Music\David S. Ware\1990 - Great Bliss, Volume 2\01. One Two Three.wav
Pre-gap length 0:00:02.44
Peak level 87.0 %
Track quality 100.0 %
Test CRC DD02ED4E
Copy CRC DD02ED4E
Accurately ripped (confidence 3) [360AA0C6]
Copy OK
Track 2
Filename C:\Users\Eric\Music\David S. Ware\1990 - Great Bliss, Volume 2\02. Emptiness.wav
Peak level 88.9 %
Track quality 100.0 %
Test CRC AF24B0B3
Copy CRC AF24B0B3
Accurately ripped (confidence 3) [AC9FE6BC]
Copy OK
Track 3
Filename C:\Users\Eric\Music\David S. Ware\1990 - Great Bliss, Volume 2\03. Primary Piece III.wav
Pre-gap length 0:00:00.46
Peak level 99.2 %
Track quality 100.0 %
Test CRC FFB3B50B
Copy CRC FFB3B50B
Accurately ripped (confidence 3) [28F7842B]
Copy OK
Track 4
Filename C:\Users\Eric\Music\David S. Ware\1990 - Great Bliss, Volume 2\04. Saxelloscape Two.wav
Pre-gap length 0:00:01.69
Peak level 69.2 %
Track quality 100.0 %
Test CRC C022F94F
Copy CRC C022F94F
Accurately ripped (confidence 3) [F3F89979]
Copy OK
Track 5
Filename C:\Users\Eric\Music\David S. Ware\1990 - Great Bliss, Volume 2\05. The Child Without-The Child Within.wav
Peak level 92.8 %
Track quality 100.0 %
Test CRC D40CD2D4
Copy CRC D40CD2D4
Accurately ripped (confidence 3) [0533DB9C]
Copy OK
Track 6
Filename C:\Users\Eric\Music\David S. Ware\1990 - Great Bliss, Volume 2\06. Stritchland.wav
Peak level 100.0 %
Track quality 100.0 %
Test CRC FA352A61
Copy CRC FA352A61
Accurately ripped (confidence 3) [87DB039C]
Copy OK
Track 7
Filename C:\Users\Eric\Music\David S. Ware\1990 - Great Bliss, Volume 2\07. Low Strata.wav
Peak level 92.7 %
Track quality 100.0 %
Test CRC 7711E21B
Copy CRC 7711E21B
Accurately ripped (confidence 3) [37495668]
Copy OK
Track 8
Filename C:\Users\Eric\Music\David S. Ware\1990 - Great Bliss, Volume 2\08. Reign of Peace.wav
Pre-gap length 0:00:01.60
Peak level 88.7 %
Track quality 100.0 %
Test CRC 19AE38B9
Copy CRC 19AE38B9
Accurately ripped (confidence 3) [6F964ECB]
Copy OK
All tracks accurately ripped
No errors occurred
End of status report
 
.cue
REM ACCURATERIPID 0015a06e-0090473f-5f10e408
REM DISCID 5F10E408
REM COMMENT "ExactAudioCopy v0.99pb4"
PERFORMER "David S. Ware Quartet"
TITLE "Great Bliss, Volume 2"
REM DATE 1990
REM DISCNUMBER 1
REM TOTALDISCS 1
FILE "01.00. (HTOA).flac" WAVE
TRACK 01 AUDIO
PERFORMER "David S. Ware Quartet"
TITLE "One Two Three"
INDEX 00 00:00:00
FILE "01. One Two Three.flac" WAVE
INDEX 01 00:00:00
FILE "02. Emptiness.flac" WAVE
TRACK 02 AUDIO
PERFORMER "David S. Ware Quartet"
TITLE "Emptiness"
INDEX 01 00:00:00
TRACK 03 AUDIO
PERFORMER "David S. Ware Quartet"
TITLE "Primary Piece III"
INDEX 00 04:20:25
FILE "03. Primary Piece III.flac" WAVE
INDEX 01 00:00:00
TRACK 04 AUDIO
PERFORMER "David S. Ware Quartet"
TITLE "Saxelloscape Two"
INDEX 00 08:17:10
FILE "04. Saxelloscape Two.flac" WAVE
INDEX 01 00:00:00
FILE "05. The Child Without-The Child Within.flac" WAVE
TRACK 05 AUDIO
PERFORMER "David S. Ware Quartet"
TITLE "The Child Without-The Child Within"
INDEX 01 00:00:00
FILE "06. Stritchland.flac" WAVE
TRACK 06 AUDIO
PERFORMER "David S. Ware Quartet"
TITLE "Stritchland"
INDEX 01 00:00:00
FILE "07. Low Strata.flac" WAVE
TRACK 07 AUDIO
PERFORMER "David S. Ware Quartet"
TITLE "Low Strata"
INDEX 01 00:00:00
TRACK 08 AUDIO
PERFORMER "David S. Ware Quartet"
TITLE "Reign of Peace"
INDEX 00 06:08:30
FILE "08. Reign of Peace.flac" WAVE
INDEX 01 00:00:00
 
.accurip
[CUETools log; Date: 10/19/2012 9:31:56 AM; Version: 2.1.2a]
Pregap length 00:00:33.
[CTDB TOCID: KDhNpU6aYE_JBtj96zWsTN.78Bo-] disk not present in database.
[AccurateRip ID: 0015a06e-0090473f-5f10e408] found.
Track [ CRC ] Status
01 [360aa0c6] (3/3) Accurately ripped
02 [ac9fe6bc] (3/3) Accurately ripped
03 [28f7842b] (3/3) Accurately ripped
04 [f3f89979] (3/3) Accurately ripped
05 [0533db9c] (3/3) Accurately ripped
06 [87db039c] (3/3) Accurately ripped
07 [37495668] (3/3) Accurately ripped
08 [6f964ecb] (3/3) Accurately ripped
Track Peak [ CRC32 ] [W/O NULL]
-- 100.0 [A489DC33] [B8D791E1]
01 87.0 [DD02ED4E] [D4A92D68]
02 88.9 [AF24B0B3] [D6BF06DA]
03 99.2 [FFB3B50B] [299C96AC]
04 69.2 [C022F94F] [B8FA7FFA]
05 92.8 [D40CD2D4] [991AC2C4]
06 100.0 [FA352A61] [F651CD09]
07 92.7 [7711E21B] [6D5895B4]
08 88.7 [19AE38B9] [90F80E65]

David S. Ware Quartet - Great Bliss, Volume 1
другие релизы
Any questions -> support@pro-jazz.com. По всем вопросам пишите -> support@pro-jazz.com
04:26
205
Нет комментариев. Ваш будет первым!