Вы используете незарегистрированную версию компонента "Вкладки"!

Поиск

(free jazz) David S. Ware - Flight of I 1991, FLAC (tracks+.cue), lossless

(free jazz) David S. Ware - Flight of I 1991, FLAC (tracks+.cue), lossless
Треклист:


David S. Ware - Flight of I 1991

Жанр: free jazz
Год выпуска: 1991
Издатель (лейбл):Columbia CK 52956
Формат: FLAC (tracks+.cue)
Битрейт аудио: lossless
Продолжительность 1`01`41
Источник: what.cd
Bass – William Parker
Drums – Mark Edwards (4)
Piano – Matthew Shipp
Saxophone [Tenor] – David S. Ware
Recorded on 10, 11 December 1991 at The Power Station, NYC.

tracks

1 Aquarian Sound 7:49
2 There Will Never Be Another You 9:29
3 Sad Eyes 11:10
4 Flight Of i 8:11
5 Yesterdays 6:51
6 Infi-Rhythms #1 17:43


 
.log
CUERipper v2.1.2 Copyright (C) 2008-10 Gregory S. Chudov
EAC extraction logfile from 19. October 2012, 10:20
David S. Ware / Flight of i
Used drive : PLDS DVD-RW DH16ABSH Adapter: 1 ID: 0
Read mode : Secure
Utilize accurate stream : Yes
Defeat audio cache : Yes
Make use of C2 pointers : No
Read offset correction : 6
Overread into Lead-In and Lead-Out : No
Fill up missing offset samples with silence : Yes
Delete leading and trailing silent blocks : No
Null samples used in CRC calculations : Yes
Used interface : Native Win32 interface for Win NT & 2000
Gap handling : Appended to previous track
Used output format : Internal WAV Routines
Sample format : 44.100 Hz; 16 Bit; Stereo
TOC of the extracted CD
Track | Start | Length | Start sector | End sector
---------------------------------------------------------
1 | 0:00.00 | 7:51.42 | 0 | 35366
2 | 7:51.42 | 9:31.65 | 35367 | 78256
3 | 17:23.32 | 11:14.38 | 78257 | 128844
4 | 28:37.70 | 8:15.45 | 128845 | 166014
5 | 36:53.40 | 6:55.12 | 166015 | 197151
6 | 43:48.52 | 17:52.25 | 197152 | 277576
Track 1
Filename C:\Users\Eric\Music\David S. Ware\1991 - Flight of i\01. Aquarian Sound.wav
Pre-gap length 0:00:02.00
Peak level 100.0 %
Track quality 100.0 %
Test CRC 193B96BC
Copy CRC 193B96BC
Accurately ripped (confidence 6) [8791DC3F]
Copy OK
Track 2
Filename C:\Users\Eric\Music\David S. Ware\1991 - Flight of i\02. There Will Never Be Another You.wav
Peak level 87.8 %
Track quality 100.0 %
Test CRC A9C2E1B7
Copy CRC A9C2E1B7
Accurately ripped (confidence 6) [B104E75A]
Copy OK
Track 3
Filename C:\Users\Eric\Music\David S. Ware\1991 - Flight of i\03. Sad Eyes.wav
Pre-gap length 0:00:00.33
Peak level 99.9 %
Track quality 100.0 %
Test CRC 0025D8D9
Copy CRC 0025D8D9
Accurately ripped (confidence 6) [08D48138]
Copy OK
Track 4
Filename C:\Users\Eric\Music\David S. Ware\1991 - Flight of i\04. Flight of i.wav
Pre-gap length 0:00:02.17
Peak level 75.9 %
Track quality 100.0 %
Test CRC 08895C00
Copy CRC 08895C00
Accurately ripped (confidence 6) [747A9F73]
Copy OK
Track 5
Filename C:\Users\Eric\Music\David S. Ware\1991 - Flight of i\05. Yesterdays.wav
Pre-gap length 0:00:00.33
Peak level 99.9 %
Track quality 100.0 %
Test CRC DDECEDA0
Copy CRC DDECEDA0
Accurately ripped (confidence 6) [2EA0DF02]
Copy OK
Track 6
Filename C:\Users\Eric\Music\David S. Ware\1991 - Flight of i\06. Infi-Rhythms #1.wav
Pre-gap length 0:00:01.62
Peak level 100.0 %
Track quality 100.0 %
Test CRC 9116451A
Copy CRC 9116451A
Accurately ripped (confidence 6) [1D830BFE]
Copy OK
All tracks accurately ripped
No errors occurred
End of status report
 
.cue
REM ACCURATERIPID 000d7a0d-0048e3d0-410e7506
REM DISCID 410E7506
REM COMMENT "ExactAudioCopy v0.99pb4"
PERFORMER "David S. Ware"
TITLE "Flight of i"
REM DATE 1991
REM DISCNUMBER 1
REM TOTALDISCS 1
FILE "01. Aquarian Sound.flac" WAVE
TRACK 01 AUDIO
PERFORMER "David S. Ware"
TITLE "Aquarian Sound"
INDEX 01 00:00:00
FILE "02. There Will Never Be Another You.flac" WAVE
TRACK 02 AUDIO
PERFORMER "David S. Ware"
TITLE "There Will Never Be Another You"
INDEX 01 00:00:00
TRACK 03 AUDIO
PERFORMER "David S. Ware"
TITLE "Sad Eyes"
INDEX 00 09:31:40
FILE "03. Sad Eyes.flac" WAVE
INDEX 01 00:00:00
TRACK 04 AUDIO
PERFORMER "David S. Ware"
TITLE "Flight of i"
INDEX 00 11:12:25
FILE "04. Flight of i.flac" WAVE
INDEX 01 00:00:00
TRACK 05 AUDIO
PERFORMER "David S. Ware"
TITLE "Yesterdays"
INDEX 00 08:15:20
FILE "05. Yesterdays.flac" WAVE
INDEX 01 00:00:00
TRACK 06 AUDIO
PERFORMER "David S. Ware"
TITLE "Infi-Rhythms #1"
INDEX 00 06:53:40
FILE "06. Infi-Rhythms #1.flac" WAVE
INDEX 01 00:00:00
 
.accurip
[CUETools log; Date: 10/19/2012 10:20:47 AM; Version: 2.1.2a]
[CTDB TOCID: DYxkJCHVVjLq7srh2.nI2dJiuhE-] disk not present in database.
[AccurateRip ID: 000d7a0d-0048e3d0-410e7506] found.
Track [ CRC ] Status
01 [8791dc3f] (6/6) Accurately ripped
02 [b104e75a] (6/6) Accurately ripped
03 [08d48138] (6/6) Accurately ripped
04 [747a9f73] (6/6) Accurately ripped
05 [2ea0df02] (6/6) Accurately ripped
06 [1d830bfe] (6/6) Accurately ripped
Track Peak [ CRC32 ] [W/O NULL]
-- 100.0 [8EAC5ACD] [58036EBE]
01 100.0 [193B96BC] [4BA3A693]
02 87.8 [A9C2E1B7] [7F6D8284]
03 99.9 [0025D8D9] [75E1256A]
04 75.9 [08895C00] [16D2192E]
05 99.9 [DDECEDA0] [D7560F69]
06 100.0 [9116451A] [B7AE31E3]

другие релизы
По всем вопросам пишите личное сообщение пользователю M0p94ok.
04:27
191
Нет комментариев. Ваш будет первым!