Вы используете незарегистрированную версию компонента "Вкладки"!

Поиск

(free jazz) David S. Ware - Surrendered 2000, FLAC (tracks+.cue), lossless

(free jazz) David S. Ware - Surrendered 2000, FLAC (tracks+.cue), lossless
Треклист:


David S. Ware - Surrendered 2000

Жанр:free jazz
Год выпуска:
Издатель (лейбл):Columbia / CK 63816
Формат: FLAC (tracks+.cue)
Битрейт аудио: lossless
Продолжительность 52`31
Источник: what.cd
Bass – William Parker
Drums – Guillermo E. Brown
Piano – Matthew Shipp
Saxophone [Tenor] – David S. Ware

tracks

1 Peace Celestial 8:28
2 Sweet Georgia Bright 5:15
3 Theme Of Ages 7:44
4 Surrendered 7:58
5 Glorified Calypso 6:02
6 African Drums 16:53


 
.log
Exact Audio Copy V0.99 prebeta 4 from 23. January 2008
EAC extraction logfile from 2. September 2008, 7:40
David S. Ware / Surrendered
Used drive : LITE-ON LTR-52246S Adapter: 1 ID: 1
Read mode : Secure
Utilize accurate stream : Yes
Defeat audio cache : Yes
Make use of C2 pointers : No
Read offset correction : 6
Overread into Lead-In and Lead-Out : No
Fill up missing offset samples with silence : Yes
Delete leading and trailing silent blocks : No
Null samples used in CRC calculations : Yes
Used interface : Installed external ASPI interface
Gap handling : Appended to previous track
Used output format : User Defined Encoder
Selected bitrate : 32 kBit/s
Quality : High
Add ID3 tag : No
Command line compressor : C:\Program Files\Exact Audio Copy\Flac\flac.exe
Additional command line options : -V -8 -T \"artist=%a\" -T \"title=%t\" -T \"album=%g\" -T \"date=%y\" -T \"tracknumber=%n\" -T \"genre=%m\" %s
TOC of the extracted CD
Track | Start | Length | Start sector | End sector
---------------------------------------------------------
1 | 0:00.00 | 8:31.10 | 0 | 38334
2 | 8:31.10 | 5:16.55 | 38335 | 62089
3 | 13:47.65 | 7:43.65 | 62090 | 96879
4 | 21:31.55 | 8:02.45 | 96880 | 133074
5 | 29:34.25 | 6:01.67 | 133075 | 160216
6 | 35:36.17 | 16:54.28 | 160217 | 236294
Track 1
Filename C:\Audio\Converted Music\David S. Ware - Surrendered - FLAC\01 - David S. Ware - Peace Celestial.wav
Pre-gap length 0:00:02.00
Peak level 100.0 %
Track quality 100.0 %
Test CRC 2FE97D27
Copy CRC 2FE97D27
Accurately ripped (confidence 2) [16EB354E]
Copy OK
Track 2
Filename C:\Audio\Converted Music\David S. Ware - Surrendered - FLAC\02 - David S. Ware - Sweet Georgia Bright.wav
Pre-gap length 0:00:03.20
Peak level 99.2 %
Track quality 100.0 %
Test CRC 77B5A442
Copy CRC 77B5A442
Accurately ripped (confidence 2) [FDA4749E]
Copy OK
Track 3
Filename C:\Audio\Converted Music\David S. Ware - Surrendered - FLAC\03 - David S. Ware - Theme Of Ages.wav
Pre-gap length 0:00:01.05
Peak level 100.0 %
Track quality 99.9 %
Test CRC 525FCA07
Copy CRC 525FCA07
Accurately ripped (confidence 2) [302FFBDA]
Copy OK
Track 4
Filename C:\Audio\Converted Music\David S. Ware - Surrendered - FLAC\04 - David S. Ware - Surrendered.wav
Pre-gap length 0:00:01.63
Peak level 100.0 %
Track quality 100.0 %
Test CRC 44F43B57
Copy CRC 44F43B57
Accurately ripped (confidence 2) [82D6AEFD]
Copy OK
Track 5
Filename C:\Audio\Converted Music\David S. Ware - Surrendered - FLAC\05 - David S. Ware - Glorified Calypso.wav
Pre-gap length 0:00:04.23
Peak level 100.0 %
Track quality 100.0 %
Test CRC 20EA6989
Copy CRC 20EA6989
Accurately ripped (confidence 2) [4BB160DA]
Copy OK
Track 6
Filename C:\Audio\Converted Music\David S. Ware - Surrendered - FLAC\06 - David S. Ware - African Drums.wav
Pre-gap length 0:00:01.37
Peak level 98.7 %
Track quality 100.0 %
Test CRC 5B53FA32
Copy CRC 5B53FA32
Accurately ripped (confidence 2) [11283FD8]
Copy OK
All tracks accurately ripped
No errors occurred
End of status report
 
.cue
REM GENRE Jazz
REM DATE 2000
REM DISCID 500C4E06
REM COMMENT "ExactAudioCopy v0.99pb4"
PERFORMER "David S. Ware"
TITLE "Surrendered"
FILE "01 - David S. Ware - Peace Celestial.wav" WAVE
TRACK 01 AUDIO
TITLE "Peace Celestial"
PERFORMER "David S. Ware"
ISRC USSM10002188
INDEX 01 00:00:00
TRACK 02 AUDIO
TITLE "Sweet Georgia Bright"
PERFORMER "David S. Ware"
ISRC USSM10002191
INDEX 00 08:27:65
FILE "02 - David S. Ware - Sweet Georgia Bright.wav" WAVE
INDEX 01 00:00:00
TRACK 03 AUDIO
TITLE "Theme Of Ages"
PERFORMER "David S. Ware"
ISRC USSM10002193
INDEX 00 05:15:50
FILE "03 - David S. Ware - Theme Of Ages.wav" WAVE
INDEX 01 00:00:00
TRACK 04 AUDIO
TITLE "Surrendered"
PERFORMER "David S. Ware"
ISRC USSM10002195
INDEX 00 07:42:02
FILE "04 - David S. Ware - Surrendered.wav" WAVE
INDEX 01 00:00:00
TRACK 05 AUDIO
TITLE "Glorified Calypso"
PERFORMER "David S. Ware"
ISRC USSM10002197
INDEX 00 07:58:22
FILE "05 - David S. Ware - Glorified Calypso.wav" WAVE
INDEX 01 00:00:00
TRACK 06 AUDIO
TITLE "African Drums"
PERFORMER "David S. Ware"
ISRC USSM10002198
INDEX 00 06:00:30
FILE "06 - David S. Ware - African Drums.wav" WAVE
INDEX 01 00:00:00

другие релизы
Any questions -> support@pro-jazz.com. По всем вопросам пишите -> support@pro-jazz.com
04:28
177
Нет комментариев. Ваш будет первым!