Вы используете незарегистрированную версию компонента "Вкладки"!

Поиск

(free jazz) David S. Ware Quartet - Corridors & Parallels 2002, FLAC (tracks+.cue), lossless

Треклист:


David S. Ware Quartet - Corridors & Parallels 2002

Жанр: free jazz
Год выпуска: 2002
Издатель (лейбл):AUM Fidelity 019
Формат: FLAC (tracks+.cue)
Битрейт аудио: lossless
Продолжительность 48`55
Источник: what.cd
Davis S. Ware - ts
Matthew Shipp - synth
William Parker - bass
Guillermo E. Brown - dr
Feb 26-27, 2001, NYC

tracks

1) Untitled 1 (1:20)
2) Straight Track (10:02)
3) Jazz SciFi (4:22)
4) Superimposed (5:58)
5) Sound-a-bye (3:08)
6) Untitled 2 (0:37)
7) Corridors & Parallels (8:59)
8) Somewhere (3:11)
9) Spaces Embraces (3:17)
10) Mother May You Rest in Bliss (6:07)
11) Untitled 3 (1:48)
Total time: 48:54


 
.log
Exact Audio Copy V1.0 beta 1 from 15. November 2010
EAC extraction logfile from 27. March 2011, 14:35
David S. Ware Quartet / Corridors & Parallels
Used drive : TSSTcorpCD/DVDW SH-S182D Adapter: 1 ID: 0
Read mode : Secure
Utilize accurate stream : Yes
Defeat audio cache : Yes
Make use of C2 pointers : No
Read offset correction : 6
Overread into Lead-In and Lead-Out : No
Fill up missing offset samples with silence : Yes
Delete leading and trailing silent blocks : No
Null samples used in CRC calculations : Yes
Used interface : Native Win32 interface for Win NT & 2000
Gap handling : Appended to previous track
Used output format : User Defined Encoder
Selected bitrate : 128 kBit/s
Quality : High
Add ID3 tag : No
Command line compressor : C:\Program Files\Exact Audio Copy\Flac\flac.exe
Additional command line options : -V -8 -T "artist=%a" -T "title=%t" -T "album=%g" -T "date=%y" -T "tracknumber=%n" -T "genre=%m" %s
TOC of the extracted CD
Track | Start | Length | Start sector | End sector
---------------------------------------------------------
1 | 0:00.00 | 1:20.10 | 0 | 6009
2 | 1:20.10 | 10:02.65 | 6010 | 51224
3 | 11:23.00 | 4:22.16 | 51225 | 70890
4 | 15:45.16 | 5:58.35 | 70891 | 97775
5 | 21:43.51 | 3:08.63 | 97776 | 111938
6 | 24:52.39 | 0:37.22 | 111939 | 114735
7 | 25:29.61 | 8:59.20 | 114736 | 155180
8 | 34:29.06 | 3:11.58 | 155181 | 169563
9 | 37:40.64 | 3:17.58 | 169564 | 184396
10 | 40:58.47 | 6:07.70 | 184397 | 211991
11 | 47:06.42 | 1:48.00 | 211992 | 220091
Track 1
Filename F:\EACrips\David S. Ware Quartet - 2002 - Corridors & Parallels\01 - Untitled.wav
Pre-gap length 0:00:02.00
Peak level 86.9 %
Extraction speed 3.2 X
Track quality 100.0 %
Test CRC AF6E80DB
Copy CRC AF6E80DB
Accurately ripped (confidence 4) [FD49FC7A]
Copy OK
Track 2
Filename F:\EACrips\David S. Ware Quartet - 2002 - Corridors & Parallels\02 - Straight Track.wav
Pre-gap length 0:00:01.66
Peak level 88.1 %
Extraction speed 5.2 X
Track quality 100.0 %
Test CRC 7274E42F
Copy CRC 7274E42F
Accurately ripped (confidence 4) [F5E019DA]
Copy OK
Track 3
Filename F:\EACrips\David S. Ware Quartet - 2002 - Corridors & Parallels\03 - Jazz Sci-Fi.wav
Peak level 100.0 %
Extraction speed 5.5 X
Track quality 100.0 %
Test CRC 12FBAC39
Copy CRC 12FBAC39
Accurately ripped (confidence 4) [489E11B8]
Copy OK
Track 4
Filename F:\EACrips\David S. Ware Quartet - 2002 - Corridors & Parallels\04 - Superimposed.wav
Peak level 100.0 %
Extraction speed 6.2 X
Track quality 100.0 %
Test CRC 2FD38B25
Copy CRC 2FD38B25
Accurately ripped (confidence 4) [26BFFEEF]
Copy OK
Track 5
Filename F:\EACrips\David S. Ware Quartet - 2002 - Corridors & Parallels\05 - Sound-a-Bye.wav
Pre-gap length 0:00:02.50
Peak level 89.9 %
Extraction speed 6.0 X
Track quality 100.0 %
Test CRC 35783FC9
Copy CRC 35783FC9
Accurately ripped (confidence 4) [84890CDF]
Copy OK
Track 6
Filename F:\EACrips\David S. Ware Quartet - 2002 - Corridors & Parallels\06 - Untitled.wav
Peak level 70.5 %
Extraction speed 3.5 X
Track quality 100.0 %
Test CRC ABFAB58F
Copy CRC ABFAB58F
Accurately ripped (confidence 4) [723F1FDC]
Copy OK
Track 7
Filename F:\EACrips\David S. Ware Quartet - 2002 - Corridors & Parallels\07 - Corridors & Parallels.wav
Pre-gap length 0:00:01.00
Peak level 100.0 %
Extraction speed 6.9 X
Track quality 99.9 %
Test CRC 7FF2F778
Copy CRC 7FF2F778
Accurately ripped (confidence 4) [FBD4D4DF]
Copy OK
Track 8
Filename F:\EACrips\David S. Ware Quartet - 2002 - Corridors & Parallels\08 - Somewhere.wav
Pre-gap length 0:00:01.49
Peak level 82.0 %
Extraction speed 6.9 X
Track quality 100.0 %
Test CRC 1BA5CB6D
Copy CRC 1BA5CB6D
Accurately ripped (confidence 4) [61A473F1]
Copy OK
Track 9
Filename F:\EACrips\David S. Ware Quartet - 2002 - Corridors & Parallels\09 - Spaces Embraces.wav
Peak level 98.8 %
Extraction speed 7.1 X
Track quality 100.0 %
Test CRC 6100E72D
Copy CRC 6100E72D
Accurately ripped (confidence 4) [3C80766F]
Copy OK
Track 10
Filename F:\EACrips\David S. Ware Quartet - 2002 - Corridors & Parallels\10 - Mother May You Rest in Bliss.wav
Pre-gap length 0:00:02.77
Peak level 79.4 %
Extraction speed 7.4 X
Track quality 99.9 %
Test CRC E397306D
Copy CRC E397306D
Accurately ripped (confidence 4) [6AFE9F09]
Copy OK
Track 11
Filename F:\EACrips\David S. Ware Quartet - 2002 - Corridors & Parallels\11 - Untitled.wav
Pre-gap length 0:00:02.00
Peak level 98.8 %
Extraction speed 6.7 X
Track quality 100.0 %
Test CRC B021F743
Copy CRC B021F743
Accurately ripped (confidence 4) [9F31FC60]
Copy OK
All tracks accurately ripped
No errors occurred
End of status report
==== Log checksum 5500F5A03A9A4EE362D53F870A4BD487EEB88379D98694FD894A008B66495A69 ====
 
.cue
REM GENRE Jazz
REM DATE 2000
REM DISCID 500C4E06
REM COMMENT "ExactAudioCopy v0.99pb4"
PERFORMER "David S. Ware"
TITLE "Surrendered"
FILE "01 - David S. Ware - Peace Celestial.wav" WAVE
TRACK 01 AUDIO
TITLE "Peace Celestial"
PERFORMER "David S. Ware"
ISRC USSM10002188
INDEX 01 00:00:00
TRACK 02 AUDIO
TITLE "Sweet Georgia Bright"
PERFORMER "David S. Ware"
ISRC USSM10002191
INDEX 00 08:27:65
FILE "02 - David S. Ware - Sweet Georgia Bright.wav" WAVE
INDEX 01 00:00:00
TRACK 03 AUDIO
TITLE "Theme Of Ages"
PERFORMER "David S. Ware"
ISRC USSM10002193
INDEX 00 05:15:50
FILE "03 - David S. Ware - Theme Of Ages.wav" WAVE
INDEX 01 00:00:00
TRACK 04 AUDIO
TITLE "Surrendered"
PERFORMER "David S. Ware"
ISRC USSM10002195
INDEX 00 07:42:02
FILE "04 - David S. Ware - Surrendered.wav" WAVE
INDEX 01 00:00:00
TRACK 05 AUDIO
TITLE "Glorified Calypso"
PERFORMER "David S. Ware"
ISRC USSM10002197
INDEX 00 07:58:22
FILE "05 - David S. Ware - Glorified Calypso.wav" WAVE
INDEX 01 00:00:00
TRACK 06 AUDIO
TITLE "African Drums"
PERFORMER "David S. Ware"
ISRC USSM10002198
INDEX 00 06:00:30
FILE "06 - David S. Ware - African Drums.wav" WAVE
INDEX 01 00:00:00

другие релизы
Any questions -> support@pro-jazz.com. По всем вопросам пишите -> support@pro-jazz.com
04:28
112
Нет комментариев. Ваш будет первым!