Вы используете незарегистрированную версию компонента "Вкладки"!

Поиск

(Avant-Garde Jazz, Free Improvisation) Jon Lloyd Quartet - By Confusion - 1997, FLAC (tracks+.cue), lossless

(Avant-Garde Jazz, Free Improvisation) Jon Lloyd Quartet - By Confusion - 1997, FLAC (tracks+.cue), lossless
Треклист:
•Jon Lloyd Quartet - By Confusion•
Жанр: Avant-Garde Jazz, Free Improvisation
Страна-производитель диска: Switzerland
Год издания: 1997
Издатель (лейбл): Hat Hut Records
Номер по каталогу: hat ART CD 6198
Аудиокодек: FLAC (*.flac)
Тип рипа: tracks+.cue
Битрейт аудио: lossless
Продолжительность: 01:05:10
Источник (релизер): mishka1981
Наличие сканов в содержимом раздачи: да
Треклист:
01.3 : 2 {07:22}
02.Tactility {08:43}
03.Overlay {11:04}
04.Nystagmus {11:34}
05.Resilience {07:08}
06.Interface {13:28}
07.Straight Up and Down {05:51}
Personnel:
Jon Lloyd (ss) John Law (p) Tim Wells (b) Mark Sanders (dr).
 
Лог создания рипа
Exact Audio Copy V1.0 beta 1 from 15. November 2010
EAC extraction logfile from 22. October 2012, 15:39
Jon Lloyd Quartet / By Confusion
Used drive : TSSTcorpCDDVDW TS-L633A Adapter: 3 ID: 0
Read mode : Secure
Utilize accurate stream : Yes
Defeat audio cache : Yes
Make use of C2 pointers : No
Read offset correction : 6
Overread into Lead-In and Lead-Out : No
Fill up missing offset samples with silence : Yes
Delete leading and trailing silent blocks : No
Null samples used in CRC calculations : Yes
Used interface : Installed external ASPI interface
Gap handling : Appended to previous track
Used output format : User Defined Encoder
Selected bitrate : 896 kBit/s
Quality : High
Add ID3 tag : No
Command line compressor : C:\Program Files\Exact Audio Copy\FLAC\FLAC.EXE
Additional command line options : -8 -V -T "ARTIST=%a" -T "TITLE=%t" -T "ALBUM=%g" -T "DATE=%y" -T "TRACKNUMBER=%n" -T "TOTALTRACKS=%x" -T "GENRE=%m" -T "ALBUMARTIST=%v" -T "ALBUM ARTIST=%v" -T "COMMENT=EAC Secure Mode, Test & Copy, AccurateRip, FLAC -8" %s
TOC of the extracted CD
Track | Start | Length | Start sector | End sector
---------------------------------------------------------
1 | 0:00.00 | 7:22.62 | 0 | 33211
2 | 7:22.62 | 8:43.00 | 33212 | 72436
3 | 16:05.62 | 11:04.00 | 72437 | 122236
4 | 27:09.62 | 11:34.00 | 122237 | 174286
5 | 38:43.62 | 7:08.00 | 174287 | 206386
6 | 45:51.62 | 13:28.00 | 206387 | 266986
7 | 59:19.62 | 5:51.13 | 266987 | 293324
Track 1
Filename C:\MY RIPS\01 - 3 - 2.wav
Pre-gap length 0:00:02.00
Peak level 92.3 %
Extraction speed 1.3 X
Track quality 100.0 %
Test CRC 3A6FBB1A
Copy CRC 3A6FBB1A
Accurately ripped (confidence 3) [E2093B00]
Copy OK
Track 2
Filename C:\MY RIPS\02 - Tactility.wav
Peak level 86.4 %
Extraction speed 1.4 X
Track quality 99.9 %
Test CRC E52A186A
Copy CRC E52A186A
Accurately ripped (confidence 3) [88A39B4C]
Copy OK
Track 3
Filename C:\MY RIPS\03 - Overlay.wav
Peak level 91.6 %
Extraction speed 1.8 X
Track quality 100.0 %
Test CRC 50B9B10A
Copy CRC 50B9B10A
Accurately ripped (confidence 3) [6D81815A]
Copy OK
Track 4
Filename C:\MY RIPS\04 - Nystagmus.wav
Peak level 92.3 %
Extraction speed 1.8 X
Track quality 99.9 %
Test CRC 5342F7D7
Copy CRC 5342F7D7
Accurately ripped (confidence 3) [2A1E2D10]
Copy OK
Track 5
Filename C:\MY RIPS\05 - Resilience.wav
Peak level 92.3 %
Extraction speed 1.7 X
Track quality 99.9 %
Test CRC AA348826
Copy CRC AA348826
Accurately ripped (confidence 3) [47FFB558]
Copy OK
Track 6
Filename C:\MY RIPS\06 - Interface.wav
Peak level 72.4 %
Extraction speed 2.4 X
Track quality 100.0 %
Test CRC 2F36A0F1
Copy CRC 2F36A0F1
Accurately ripped (confidence 3) [9CB8AF5D]
Copy OK
Track 7
Filename C:\MY RIPS\07 - Straight Up and Down.wav
Peak level 77.7 %
Extraction speed 2.4 X
Track quality 100.0 %
Test CRC 4E816EDA
Copy CRC 4E816EDA
Accurately ripped (confidence 3) [530F7663]
Copy OK
All tracks accurately ripped
No errors occurred
End of status report
==== Log checksum AA4E2C1602834A4FF0533516B6753FC616041C3B50CDDDF414800A1A009617D7 ====
 
Содержание индексной карты (.CUE)
REM GENRE Jazz
REM DISCID 5B0F4707
REM COMMENT "ExactAudioCopy v1.0b1"
PERFORMER "Jon Lloyd Quartet"
TITLE "By Confusion"
FILE "01 - 3 - 2.wav" WAVE
TRACK 01 AUDIO
TITLE "3 : 2"
PERFORMER "Jon Lloyd Quartet"
INDEX 01 00:00:00
FILE "02 - Tactility.wav" WAVE
TRACK 02 AUDIO
TITLE "Tactility"
PERFORMER "Jon Lloyd Quartet"
INDEX 01 00:00:00
FILE "03 - Overlay.wav" WAVE
TRACK 03 AUDIO
TITLE "Overlay"
PERFORMER "Jon Lloyd Quartet"
INDEX 01 00:00:00
FILE "04 - Nystagmus.wav" WAVE
TRACK 04 AUDIO
TITLE "Nystagmus"
PERFORMER "Jon Lloyd Quartet"
INDEX 01 00:00:00
FILE "05 - Resilience.wav" WAVE
TRACK 05 AUDIO
TITLE "Resilience"
PERFORMER "Jon Lloyd Quartet"
INDEX 01 00:00:00
FILE "06 - Interface.wav" WAVE
TRACK 06 AUDIO
TITLE "Interface"
PERFORMER "Jon Lloyd Quartet"
INDEX 01 00:00:00
FILE "07 - Straight Up and Down.wav" WAVE
TRACK 07 AUDIO
TITLE "Straight Up and Down"
PERFORMER "Jon Lloyd Quartet"
INDEX 01 00:00:00
Any questions -> support@pro-jazz.com. По всем вопросам пишите -> support@pro-jazz.com
04:29
146
Нет комментариев. Ваш будет первым!