Вы используете незарегистрированную версию компонента "Вкладки"!

Поиск

(Avant-Garde Jazz, Modern Composition) Brad Dutz - Krin - 1995, FLAC (tracks+.cue), lossless

(Avant-Garde Jazz, Modern Composition) Brad Dutz - Krin - 1995, FLAC (tracks+.cue), lossless
Треклист:
Brad Dutz / Krin
Жанр: Avant-Garde Jazz, Modern Composition
Страна-производитель диска: US
Год издания: 1995
Издатель (лейбл): Interworld
Номер по каталогу: CD 919
Страна: US
Аудиокодек: FLAC (*.flac)
Тип рипа: tracks+.cue
Битрейт аудио: lossless
Продолжительность: 57:03
Источник (релизер): свой фирменный диск
Наличие сканов в содержимом раздачи: нет
Треклист:
1 Realtor 4:28
2 Snowy Egret 4:40
3 Tupan Scive 4:40
4 Viscious Food Products 5:25
5 Krin 3:08
6 Renegotiate 3:53
7 Missouri 2:47
8 Orange Rolls 4:20
9 Indiana 2:10
10 Whig Rag 6:00
11 Behemoth 4:36
12 Excessive Ingestion 3:30
13 Refrigerate Small Rodent Leftovers 7:45
 
Лог создания рипа
Exact Audio Copy V1.0 beta 2 from 29. April 2011
EAC extraction logfile from 22. October 2012, 23:41
Brad Dutz / Krin
Used drive : PIONEER DVD-RW DVR-115D Adapter: 0 ID: 0
Read mode : Secure
Utilize accurate stream : Yes
Defeat audio cache : Yes
Make use of C2 pointers : No
Read offset correction : 48
Overread into Lead-In and Lead-Out : No
Fill up missing offset samples with silence : Yes
Delete leading and trailing silent blocks : No
Null samples used in CRC calculations : Yes
Used interface : Installed external ASPI interface
Gap handling : Appended to previous track
Used output format : User Defined Encoder
Selected bitrate : 896 kBit/s
Quality : High
Add ID3 tag : No
Command line compressor : C:\Program Files\Exact Audio Copy\FLAC\FLAC.EXE
Additional command line options : -6 -V -T "ARTIST=%artist%" -T "TITLE=%title%" -T "ALBUM=%albumtitle%" -T "DATE=%year%" -T "TRACKNUMBER=%tracknr%" -T "GENRE=%genre%" -T "COMMENT=%comment%" -T "BAND=%albuminterpret%" -T "COMPOSER=%composer%" %haslyrics%--ta
TOC of the extracted CD
Track | Start | Length | Start sector | End sector
---------------------------------------------------------
1 | 0:00.50 | 4:25.27 | 50 | 19951
2 | 4:26.02 | 4:43.65 | 19952 | 41241
3 | 9:09.67 | 4:36.30 | 41242 | 61971
4 | 13:46.22 | 5:26.68 | 61972 | 86489
5 | 19:13.15 | 3:09.32 | 86490 | 100696
6 | 22:22.47 | 3:52.68 | 100697 | 118164
7 | 26:15.40 | 2:43.60 | 118165 | 130449
8 | 28:59.25 | 4:17.57 | 130450 | 149781
9 | 33:17.07 | 2:08.48 | 149782 | 159429
10 | 35:25.55 | 5:55.57 | 159430 | 186111
11 | 41:21.37 | 4:29.30 | 186112 | 206316
12 | 45:50.67 | 3:27.38 | 206317 | 221879
13 | 49:18.30 | 7:45.60 | 221880 | 256814
Track 1
Filename D:\zzz\01 - Realtor.wav
Pre-gap length 0:00:02.50
Peak level 98.8 %
Extraction speed 4.8 X
Track quality 100.0 %
Test CRC 5FB43D89
Copy CRC 5FB43D89
Track not present in AccurateRip database
Copy OK
Track 2
Filename D:\zzz\02 - Snowy Egret.wav
Pre-gap length 0:00:02.42
Peak level 98.8 %
Extraction speed 4.8 X
Track quality 99.9 %
Test CRC 4E78C605
Copy CRC 4E78C605
Track not present in AccurateRip database
Copy OK
Track 3
Filename D:\zzz\03 - Tupan Scive.wav
Pre-gap length 0:00:01.45
Peak level 98.8 %
Extraction speed 5.8 X
Track quality 100.0 %
Test CRC A2FAA719
Copy CRC A2FAA719
Track not present in AccurateRip database
Copy OK
Track 4
Filename D:\zzz\04 - Viscous Food Products.wav
Pre-gap length 0:00:02.45
Peak level 98.8 %
Extraction speed 6.3 X
Track quality 100.0 %
Test CRC 652F562B
Copy CRC 652F562B
Track not present in AccurateRip database
Copy OK
Track 5
Filename D:\zzz\05 - Krin.wav
Pre-gap length 0:00:01.45
Peak level 98.8 %
Extraction speed 6.2 X
Track quality 100.0 %
Test CRC D2413319
Copy CRC D2413319
Track not present in AccurateRip database
Copy OK
Track 6
Filename D:\zzz\06 - Renegotiate.wav
Pre-gap length 0:00:01.45
Peak level 51.9 %
Extraction speed 6.6 X
Track quality 100.0 %
Test CRC 8F2E12A9
Copy CRC 8F2E12A9
Track not present in AccurateRip database
Copy OK
Track 7
Filename D:\zzz\07 - Missouri.wav
Pre-gap length 0:00:02.43
Peak level 98.8 %
Extraction speed 6.5 X
Track quality 100.0 %
Test CRC A14BBC47
Copy CRC A14BBC47
Track not present in AccurateRip database
Copy OK
Track 8
Filename D:\zzz\08 - Orange Rolls.wav
Pre-gap length 0:00:01.46
Peak level 98.8 %
Extraction speed 7.2 X
Track quality 100.0 %
Test CRC 35AA2F1D
Copy CRC 35AA2F1D
Track not present in AccurateRip database
Copy OK
Track 9
Filename D:\zzz\09 - Indiana.wav
Pre-gap length 0:00:01.47
Peak level 98.8 %
Extraction speed 6.5 X
Track quality 100.0 %
Test CRC E508C774
Copy CRC E508C774
Track not present in AccurateRip database
Copy OK
Track 10
Filename D:\zzz\10 - Whig Rag.wav
Pre-gap length 0:00:02.45
Peak level 98.8 %
Extraction speed 7.9 X
Track quality 100.0 %
Test CRC C796ABBF
Copy CRC C796ABBF
Track not present in AccurateRip database
Copy OK
Track 11
Filename D:\zzz\11 - Bememoth.wav
Pre-gap length 0:00:02.42
Peak level 91.7 %
Extraction speed 7.9 X
Track quality 100.0 %
Test CRC EC0803CD
Copy CRC EC0803CD
Track not present in AccurateRip database
Copy OK
Track 12
Filename D:\zzz\12 - Excessive Ingestion.wav
Pre-gap length 0:00:01.45
Peak level 98.8 %
Extraction speed 6.8 X
Track quality 99.9 %
Test CRC C5D541DF
Copy CRC C5D541DF
Track not present in AccurateRip database
Copy OK
Track 13
Filename D:\zzz\13 - Refrigerate Leftovers.wav
Pre-gap length 0:00:01.45
Peak level 98.8 %
Extraction speed 8.3 X
Track quality 99.9 %
Test CRC 3EDDD334
Copy CRC 3EDDD334
Track not present in AccurateRip database
Copy OK
None of the tracks are present in the AccurateRip database
No errors occurred
End of status report
==== Log checksum DA27AC7D81116137B43F9E27530FDE87E283C545F68F9CD912C600D3E7402A7F ====
 
Содержание индексной карты (.CUE)
REM GENRE Jazz
REM DATE 1995
REM DISCID C20D600D
REM COMMENT "ExactAudioCopy v1.0b2"
PERFORMER "Brad Dutz"
TITLE "Krin"
FILE "01 - Realtor.wav" WAVE
TRACK 01 AUDIO
TITLE "Realtor"
PERFORMER "Brad Dutz"
PREGAP 00:00:50
INDEX 01 00:00:00
TRACK 02 AUDIO
TITLE "Snowy Egret"
PERFORMER "Brad Dutz"
INDEX 00 04:22:60
FILE "02 - Snowy Egret.wav" WAVE
INDEX 01 00:00:00
TRACK 03 AUDIO
TITLE "Tupan Scive"
PERFORMER "Brad Dutz"
INDEX 00 04:42:20
FILE "03 - Tupan Scive.wav" WAVE
INDEX 01 00:00:00
TRACK 04 AUDIO
TITLE "Viscous Food Products"
PERFORMER "Brad Dutz"
INDEX 00 04:33:60
FILE "04 - Viscous Food Products.wav" WAVE
INDEX 01 00:00:00
TRACK 05 AUDIO
TITLE "Krin"
PERFORMER "Brad Dutz"
INDEX 00 05:25:23
FILE "05 - Krin.wav" WAVE
INDEX 01 00:00:00
TRACK 06 AUDIO
TITLE "Renegotiate"
PERFORMER "Brad Dutz"
INDEX 00 03:07:62
FILE "06 - Renegotiate.wav" WAVE
INDEX 01 00:00:00
TRACK 07 AUDIO
TITLE "Missouri"
PERFORMER "Brad Dutz"
INDEX 00 03:50:25
FILE "07 - Missouri.wav" WAVE
INDEX 01 00:00:00
TRACK 08 AUDIO
TITLE "Orange Rolls"
PERFORMER "Brad Dutz"
INDEX 00 02:42:14
FILE "08 - Orange Rolls.wav" WAVE
INDEX 01 00:00:00
TRACK 09 AUDIO
TITLE "Indiana"
PERFORMER "Brad Dutz"
INDEX 00 04:16:10
FILE "09 - Indiana.wav" WAVE
INDEX 01 00:00:00
TRACK 10 AUDIO
TITLE "Whig Rag"
PERFORMER "Brad Dutz"
INDEX 00 02:06:03
FILE "10 - Whig Rag.wav" WAVE
INDEX 01 00:00:00
TRACK 11 AUDIO
TITLE "Bememoth"
PERFORMER "Brad Dutz"
INDEX 00 05:53:15
FILE "11 - Bememoth.wav" WAVE
INDEX 01 00:00:00
TRACK 12 AUDIO
TITLE "Excessive Ingestion"
PERFORMER "Brad Dutz"
INDEX 00 04:27:60
FILE "12 - Excessive Ingestion.wav" WAVE
INDEX 01 00:00:00
TRACK 13 AUDIO
TITLE "Refrigerate Leftovers"
PERFORMER "Brad Dutz"
INDEX 00 03:25:68
FILE "13 - Refrigerate Leftovers.wav" WAVE
INDEX 01 00:00:00
 
Лог проверки качества
d:\>d:\aucdtect -d/-m0 d:\zzz\*.wav
auCDtect: CD records authenticity detector, version 0.8.2
Copyright (c) 2004 Oleg Berngardt. All rights reserved.
Copyright (c) 2004 Alexander Djourik. All rights reserved.
------------------------------------------------------------
Processing file: [01. Realtor.wav]
------------------------------------------------------------
This track looks like CDDA with probability 99%
------------------------------------------------------------
Processing file: [02. Snowy Egret.wav]
------------------------------------------------------------
This track looks like CDDA with probability 86%
------------------------------------------------------------
Processing file: [03. Tupan Scive.wav]
------------------------------------------------------------
This track looks like CDDA with probability 100%
------------------------------------------------------------
Processing file: [04. Viscous Food Products.wav]
------------------------------------------------------------
This track looks like CDDA with probability 100%
------------------------------------------------------------
Processing file: [05. Krin.wav]
------------------------------------------------------------
This track looks like CDDA with probability 92%
------------------------------------------------------------
Processing file: [06. Renegotiate.wav]
------------------------------------------------------------
This track looks like CDDA with probability 86%
------------------------------------------------------------
Processing file: [07. Missouri.wav]
------------------------------------------------------------
This track looks like CDDA with probability 100%
------------------------------------------------------------
Processing file: [08. Orange Rolls.wav]
------------------------------------------------------------
This track looks like CDDA with probability 100%
------------------------------------------------------------
Processing file: [09. Indiana.wav]
------------------------------------------------------------
This track looks like CDDA with probability 100%
------------------------------------------------------------
Processing file: [10. Whig Rag.wav]
------------------------------------------------------------
This track looks like CDDA with probability 100%
------------------------------------------------------------
Processing file: [11. Bememoth.wav]
------------------------------------------------------------
This track looks like CDDA with probability 100%
------------------------------------------------------------
Processing file: [12. Excessive Ingestion.wav]
------------------------------------------------------------
This track looks like CDDA with probability 92%
------------------------------------------------------------
Processing file: [13. Refrigerate Leftovers.wav]
------------------------------------------------------------
This track looks like CDDA with probability 100%
------------------------------------------------------------
Final Conclusion:
------------------------------------------------------------
These tracks looks like CDDA with probability 100%
 
Состав
Brad Dutz - miscellaneous percussions
with
Acoustic Guitar [Acoustic Guitars] – Jim Hershman (tracks: 7, 12)
Bass Clarinet – Vinny Golia (tracks: 1, 8, 10)
Double Bass – Ken Filiano (tracks: 4, 12)
Electric Bass [Upright], Bass [Caruthers], Bass [Processed] – Steuart Liebig (tracks: 3)
Electric Guitar – Nels Cline (tracks: 1, 10)
Flute – Emily Hay (tracks: 13)
Flute [Bamboo], Voice – Vinny Golia (tracks: 8)
Flute [Bass] – Vinny Golia (tracks: 8, 10)
Mbira [Mbiras] – G.E. Stinson (tracks: 5)
Soprano Saxophone – Vinny Golia (tracks: 1)
Voice – Kaoru (tracks: 7, 9)
Any questions -> support@pro-jazz.com. По всем вопросам пишите -> support@pro-jazz.com
04:30
139
Нет комментариев. Ваш будет первым!