Вы используете незарегистрированную версию компонента "Вкладки"!

Поиск

(Avant-Garde Jazz, Modern Composition) Brad Dutz - Making Ice - 1997, FLAC (tracks+.cue), lossless

(Avant-Garde Jazz, Modern Composition) Brad Dutz - Making Ice - 1997, FLAC (tracks+.cue), lossless
Треклист:
Brad Dutz / Making Ice
Жанр: Avant-Garde Jazz, Modern Composition
Страна-производитель диска: US
Год издания: 1997
Издатель (лейбл): TrueMedia Jazzworks
Номер по каталогу: D 97910
Страна: US
Аудиокодек: FLAC (*.flac)
Тип рипа: tracks+.cue
Битрейт аудио: lossless
Продолжительность: 71:01
Источник (релизер): свой фирменный диск
Наличие сканов в содержимом раздачи: нет
Треклист:
1 I Have Teeth And You Don't 5:28
2 Enigmatic Combat 5:34
3 Borfin 13:45
4 Making Ice 7:02
5 Kaoru, A Love Ballad 7:06
6 No One Knows What You Just Ate! 8:43
7 There Is A Gorilla In My Head 12:44
8 Tribute To Don Cherry 5:32
9 It's A Guess 5:00
 
Лог создания рипа
Exact Audio Copy V1.0 beta 2 from 29. April 2011
EAC extraction logfile from 23. October 2012, 13:19
Brad Dutz / Making Ice
Used drive : PIONEER DVD-RW DVR-115D Adapter: 0 ID: 0
Read mode : Secure
Utilize accurate stream : Yes
Defeat audio cache : Yes
Make use of C2 pointers : No
Read offset correction : 48
Overread into Lead-In and Lead-Out : No
Fill up missing offset samples with silence : Yes
Delete leading and trailing silent blocks : No
Null samples used in CRC calculations : Yes
Used interface : Installed external ASPI interface
Gap handling : Appended to previous track
Used output format : User Defined Encoder
Selected bitrate : 896 kBit/s
Quality : High
Add ID3 tag : No
Command line compressor : C:\Program Files\Exact Audio Copy\FLAC\FLAC.EXE
Additional command line options : -6 -V -T "ARTIST=%artist%" -T "TITLE=%title%" -T "ALBUM=%albumtitle%" -T "DATE=%year%" -T "TRACKNUMBER=%tracknr%" -T "GENRE=%genre%" -T "COMMENT=%comment%" -T "BAND=%albuminterpret%" -T "COMPOSER=%composer%" %haslyrics%--ta
TOC of the extracted CD
Track | Start | Length | Start sector | End sector
---------------------------------------------------------
1 | 0:00.00 | 5:28.25 | 0 | 24624
2 | 5:28.25 | 5:34.57 | 24625 | 49731
3 | 11:03.07 | 13:46.08 | 49732 | 111689
4 | 24:49.15 | 7:02.70 | 111690 | 143409
5 | 31:52.10 | 7:08.05 | 143410 | 175514
6 | 39:00.15 | 8:43.37 | 175515 | 214776
7 | 47:43.52 | 12:44.73 | 214777 | 272149
8 | 60:28.50 | 5:32.25 | 272150 | 297074
9 | 66:01.00 | 5:00.60 | 297075 | 319634
Track 1
Filename D:\zzz\01 - I Have Teeth and You Don't.wav
Pre-gap length 0:00:02.00
Peak level 100.0 %
Extraction speed 4.4 X
Track quality 99.9 %
Test CRC 3DE98BDB
Copy CRC 3DE98BDB
Track not present in AccurateRip database
Copy OK
Track 2
Filename D:\zzz\02 - Enigmatic Combat.wav
Peak level 100.0 %
Extraction speed 5.4 X
Track quality 100.0 %
Test CRC 0BAA8461
Copy CRC 0BAA8461
Track not present in AccurateRip database
Copy OK
Track 3
Filename D:\zzz\03 - Borfin.wav
Peak level 100.0 %
Extraction speed 6.7 X
Track quality 100.0 %
Test CRC 05D1C5C9
Copy CRC 05D1C5C9
Track not present in AccurateRip database
Copy OK
Track 4
Filename D:\zzz\04 - Making Ice.wav
Peak level 100.0 %
Extraction speed 6.7 X
Track quality 99.9 %
Test CRC 89F8C2AD
Copy CRC 89F8C2AD
Track not present in AccurateRip database
Copy OK
Track 5
Filename D:\zzz\05 - Kaoru, A Love Ballad.wav
Peak level 99.9 %
Extraction speed 7.7 X
Track quality 100.0 %
Test CRC 37B3B020
Copy CRC 37B3B020
Track not present in AccurateRip database
Copy OK
Track 6
Filename D:\zzz\06 - No One Knows What You Just Ate!.wav
Peak level 99.9 %
Extraction speed 8.3 X
Track quality 100.0 %
Test CRC 94235B75
Copy CRC 94235B75
Track not present in AccurateRip database
Copy OK
Track 7
Filename D:\zzz\07 - There is a Gorilla on My Head.wav
Peak level 99.9 %
Extraction speed 9.1 X
Track quality 100.0 %
Test CRC 8320DA46
Copy CRC 8320DA46
Track not present in AccurateRip database
Copy OK
Track 8
Filename D:\zzz\08 - Tribute to Don Cherry.wav
Peak level 99.9 %
Extraction speed 8.3 X
Track quality 99.9 %
Test CRC 651C5E4D
Copy CRC 651C5E4D
Track not present in AccurateRip database
Copy OK
Track 9
Filename D:\zzz\09 - It's a Guess.wav
Peak level 100.0 %
Extraction speed 8.3 X
Track quality 99.9 %
Test CRC A10E27E1
Copy CRC A10E27E1
Track not present in AccurateRip database
Copy OK
None of the tracks are present in the AccurateRip database
No errors occurred
End of status report
==== Log checksum 31F7F4CDFE46635631BF493118324B02AB3FE3817B6151243B3A69EB2E0FAD85 ====
 
Содержание индексной карты (.CUE)
REM GENRE Jazz
REM DATE 1997
REM DISCID 7810A509
REM COMMENT "ExactAudioCopy v1.0b2"
PERFORMER "Brad Dutz"
TITLE "Making Ice"
FILE "01 - I Have Teeth and You Don't.wav" WAVE
TRACK 01 AUDIO
TITLE "I Have Teeth and You Don't"
PERFORMER "Brad Dutz"
INDEX 01 00:00:00
FILE "02 - Enigmatic Combat.wav" WAVE
TRACK 02 AUDIO
TITLE "Enigmatic Combat"
PERFORMER "Brad Dutz"
INDEX 01 00:00:00
FILE "03 - Borfin.wav" WAVE
TRACK 03 AUDIO
TITLE "Borfin"
PERFORMER "Brad Dutz"
INDEX 01 00:00:00
FILE "04 - Making Ice.wav" WAVE
TRACK 04 AUDIO
TITLE "Making Ice"
PERFORMER "Brad Dutz"
INDEX 01 00:00:00
FILE "05 - Kaoru, A Love Ballad.wav" WAVE
TRACK 05 AUDIO
TITLE "Kaoru, A Love Ballad"
PERFORMER "Brad Dutz"
INDEX 01 00:00:00
FILE "06 - No One Knows What You Just Ate!.wav" WAVE
TRACK 06 AUDIO
TITLE "No One Knows What You Just Ate!"
PERFORMER "Brad Dutz"
INDEX 01 00:00:00
FILE "07 - There is a Gorilla on My Head.wav" WAVE
TRACK 07 AUDIO
TITLE "There is a Gorilla on My Head"
PERFORMER "Brad Dutz"
INDEX 01 00:00:00
FILE "08 - Tribute to Don Cherry.wav" WAVE
TRACK 08 AUDIO
TITLE "Tribute to Don Cherry"
PERFORMER "Brad Dutz"
INDEX 01 00:00:00
FILE "09 - It's a Guess.wav" WAVE
TRACK 09 AUDIO
TITLE "It's a Guess"
PERFORMER "Brad Dutz"
INDEX 01 00:00:00
 
Лог проверки качества
d:\>d:\aucdtect -d/-m0 d:\zzz\*.wav
auCDtect: CD records authenticity detector, version 0.8.2
Copyright (c) 2004 Oleg Berngardt. All rights reserved.
Copyright (c) 2004 Alexander Djourik. All rights reserved.
------------------------------------------------------------
Processing file: [01. I Have Teeth and You Don't.wav]
------------------------------------------------------------
This track looks like CDDA with probability 99%
------------------------------------------------------------
Processing file: [02. Enigmatic Combat.wav]
------------------------------------------------------------
This track looks like CDDA with probability 100%
------------------------------------------------------------
Processing file: [03. Borfin.wav]
------------------------------------------------------------
This track looks like CDDA with probability 100%
------------------------------------------------------------
Processing file: [04. Making Ice.wav]
------------------------------------------------------------
This track looks like CDDA with probability 100%
------------------------------------------------------------
Processing file: [05. Kaoru, A Love Ballad.wav]
------------------------------------------------------------
This track looks like CDDA with probability 100%
------------------------------------------------------------
Processing file: [06. No One Knows What You Just Ate!.wav]
------------------------------------------------------------
This track looks like CDDA with probability 99%
------------------------------------------------------------
Processing file: [07. There is a Gorilla on My Head.wav]
------------------------------------------------------------
This track looks like CDDA with probability 100%
------------------------------------------------------------
Processing file: [08. Tribute to Don Cherry.wav]
------------------------------------------------------------
This track looks like CDDA with probability 100%
------------------------------------------------------------
Processing file: [09. It's a Guess.wav]
------------------------------------------------------------
This track looks like CDDA with probability 100%
------------------------------------------------------------
Final Conclusion:
------------------------------------------------------------
These tracks looks like CDDA with probability 100%
 
Состав
Brad Dutz - miscellaneous percussions with
Acoustic Guitar – Jim Hershman (tracks: 2)
Acoustic Guitar [Nylon String] – Jim Hershman (tracks: 4)
Alto Saxophone – Kim Richmond (tracks: 1, 3, 6, 8)
Bass Clarinet – Glen Garrett (tracks: 3, 7, 8)
Bassoon – Charles Fernandez (tracks: 7)
Clarinet – Kim Richmond (tracks: 3, 4, 6, 7)
Double Bass – Trey Henry (tracks: 1 to 4, 6 to 9)
Electric Bass – Steuart Liebig (tracks: 6)
Electric Guitar – Jim Hershman (tracks: 6)
Electric Guitar, Acoustic Guitar [Steel String] – Brad Rabuchin (tracks: 4)
Flugelhorn – John Fumo (tracks: 6, 7)
Flute – Kim Richmond (tracks: 4)
Flute, Flute [Alto] – Emily Hay (tracks: 7)
Soprano Saxophone – Kim Richmond (tracks: 3, 6)
Trombone – George McMullen (tracks: 3, 7, 8)
Trombone [Bass] – George McMullen (tracks: 7)
Trumpet – John Fumo (tracks: 3, 6)
Tuba – Trey Henry (tracks: 3, 6)
Violin – Jeff Gauthier (tracks: 6)
Vocals – Kaoru (tracks: 9)
Any questions -> support@pro-jazz.com. По всем вопросам пишите -> support@pro-jazz.com
04:30
164
Нет комментариев. Ваш будет первым!