Вы используете незарегистрированную версию компонента "Вкладки"!

Поиск

(Avant-Garde Jazz, Modern Composition) Brad Dutz - Heat The Grill Cook Loin - 1999, FLAC (tracks+.cue), lossless

Треклист:
Brad Dutz / Heat The Grill Cook Loin
Жанр: Avant-Garde Jazz, Modern Composition
Страна-производитель диска: US
Год издания: 1999
Издатель (лейбл): Household Ink
Номер по каталогу: HI-126
Страна: US
Аудиокодек: FLAC (*.flac)
Тип рипа: tracks+.cue
Битрейт аудио: lossless
Продолжительность: 74:28
Источник (релизер): свой фирменный диск
Наличие сканов в содержимом раздачи: нет
Треклист:
1 Sand Helps Cohesion 7:47
2 Carniverous Marsupials 3:39
3 ShishKabubble 9:14
4 Contained Freight 6:08
5 Triple Latte 1:14
6 Chunks 8:07
7 Zax 8:06
8 Zanjan 1:27
9 Heat The Grill 7:38
10 Fish Don't Cough 8:00
11 Bamberg 1:17
12 It Does Not Matter If You Get A Hint On The Quiz! 11:17
 
Лог создания рипа
Exact Audio Copy V1.0 beta 2 from 29. April 2011
EAC extraction logfile from 23. October 2012, 14:46
Brad Dutz / Heat The Grill Cook Loin
Used drive : PIONEER DVD-RW DVR-115D Adapter: 0 ID: 0
Read mode : Secure
Utilize accurate stream : Yes
Defeat audio cache : Yes
Make use of C2 pointers : No
Read offset correction : 48
Overread into Lead-In and Lead-Out : No
Fill up missing offset samples with silence : Yes
Delete leading and trailing silent blocks : No
Null samples used in CRC calculations : Yes
Used interface : Installed external ASPI interface
Gap handling : Appended to previous track
Used output format : User Defined Encoder
Selected bitrate : 896 kBit/s
Quality : High
Add ID3 tag : No
Command line compressor : C:\Program Files\Exact Audio Copy\FLAC\FLAC.EXE
Additional command line options : -6 -V -T "ARTIST=%artist%" -T "TITLE=%title%" -T "ALBUM=%albumtitle%" -T "DATE=%year%" -T "TRACKNUMBER=%tracknr%" -T "GENRE=%genre%" -T "COMMENT=%comment%" -T "BAND=%albuminterpret%" -T "COMPOSER=%composer%" %haslyrics%--ta
TOC of the extracted CD
Track | Start | Length | Start sector | End sector
---------------------------------------------------------
1 | 0:01.00 | 7:50.20 | 75 | 35344
2 | 7:51.20 | 3:42.11 | 35345 | 52005
3 | 11:33.31 | 9:17.46 | 52006 | 93826
4 | 20:51.02 | 6:11.21 | 93827 | 121672
5 | 27:02.23 | 1:16.51 | 121673 | 127423
6 | 28:18.74 | 8:09.65 | 127424 | 164163
7 | 36:28.64 | 8:08.54 | 164164 | 200817
8 | 44:37.43 | 1:30.16 | 200818 | 207583
9 | 46:07.59 | 7:41.42 | 207584 | 242200
10 | 53:49.26 | 8:02.69 | 242201 | 278419
11 | 61:52.20 | 1:20.34 | 278420 | 284453
12 | 63:12.54 | 11:17.03 | 284454 | 335231
Track 1
Filename D:\zzz\01 - Sand Helps Cohesion.wav
Pre-gap length 0:00:03.00
Peak level 94.0 %
Extraction speed 5.2 X
Track quality 100.0 %
Test CRC BE294E2D
Copy CRC BE294E2D
Accurately ripped (confidence 1) [A18AB1F5] (AR v1)
Copy OK
Track 2
Filename D:\zzz\02 - Carniverous Marsupials.wav
Pre-gap length 0:00:02.45
Peak level 94.5 %
Extraction speed 5.4 X
Track quality 100.0 %
Test CRC 67D9A558
Copy CRC 67D9A558
Accurately ripped (confidence 1) [008A853F] (AR v1)
Copy OK
Track 3
Filename D:\zzz\03 - Shishkabubble.wav
Pre-gap length 0:00:02.45
Peak level 94.8 %
Extraction speed 6.5 X
Track quality 100.0 %
Test CRC F3DDCFE7
Copy CRC F3DDCFE7
Accurately ripped (confidence 1) [6A6E5B90] (AR v1)
Copy OK
Track 4
Filename D:\zzz\04 - Contained Freight.wav
Pre-gap length 0:00:02.45
Peak level 84.3 %
Extraction speed 6.9 X
Track quality 100.0 %
Test CRC 00F8D0F4
Copy CRC 00F8D0F4
Accurately ripped (confidence 1) [4863E56F] (AR v1)
Copy OK
Track 5
Filename D:\zzz\05 - Triple Latte.wav
Pre-gap length 0:00:02.45
Peak level 94.6 %
Extraction speed 4.0 X
Track quality 99.8 %
Test CRC 9C36BBAB
Copy CRC 9C36BBAB
Accurately ripped (confidence 1) [22B6F62C] (AR v1)
Copy OK
Track 6
Filename D:\zzz\06 - Chunks.wav
Pre-gap length 0:00:02.45
Peak level 94.3 %
Extraction speed 7.7 X
Track quality 100.0 %
Test CRC 75E81891
Copy CRC 75E81891
Accurately ripped (confidence 1) [F844E58A] (AR v1)
Copy OK
Track 7
Filename D:\zzz\07 - Zax.wav
Pre-gap length 0:00:02.45
Peak level 74.7 %
Extraction speed 7.7 X
Track quality 99.9 %
Test CRC F478E712
Copy CRC F478E712
Accurately ripped (confidence 1) [96911024] (AR v1)
Copy OK
Track 8
Filename D:\zzz\08 - Zanjan.wav
Pre-gap length 0:00:02.45
Peak level 94.7 %
Extraction speed 6.4 X
Track quality 100.0 %
Test CRC CEE998F4
Copy CRC CEE998F4
Accurately ripped (confidence 1) [EA337431] (AR v1)
Copy OK
Track 9
Filename D:\zzz\09 - Heat The Grill.wav
Pre-gap length 0:00:02.45
Peak level 94.8 %
Extraction speed 8.7 X
Track quality 100.0 %
Test CRC F0056371
Copy CRC F0056371
Accurately ripped (confidence 1) [E6A8DA27] (AR v1)
Copy OK
Track 10
Filename D:\zzz\10 - Fish Don't Cough.wav
Pre-gap length 0:00:02.45
Peak level 93.9 %
Extraction speed 9.2 X
Track quality 100.0 %
Test CRC DB54FE5D
Copy CRC DB54FE5D
Accurately ripped (confidence 1) [9DCB9AFB] (AR v1)
Copy OK
Track 11
Filename D:\zzz\11 - Bamburg.wav
Pre-gap length 0:00:02.45
Peak level 94.6 %
Extraction speed 6.9 X
Track quality 100.0 %
Test CRC 83A8A5CD
Copy CRC 83A8A5CD
Accurately ripped (confidence 1) [BEE80BED] (AR v1)
Copy OK
Track 12
Filename D:\zzz\12 - It Does Not Matter If You Get A Hint On The Quiz.wav
Pre-gap length 0:00:02.45
Peak level 94.6 %
Extraction speed 9.9 X
Track quality 100.0 %
Test CRC B5CDB155
Copy CRC B5CDB155
Accurately ripped (confidence 1) [6845A35C] (AR v1)
Copy OK
All tracks accurately ripped
No errors occurred
End of status report
==== Log checksum 544C52BB8B82EB11577DAB86DBE91C4D06DBC6934C7EE34BC5FEE50FA6BFE038 ====
 
Содержание индексной карты (.CUE)
REM GENRE "Chamber Music"
REM DATE 1999
REM DISCID B011740C
REM COMMENT "ExactAudioCopy v1.0b2"
PERFORMER "Brad Dutz"
TITLE "Heat The Grill Cook Loin"
FILE "01 - Sand Helps Cohesion.wav" WAVE
TRACK 01 AUDIO
TITLE "Sand Helps Cohesion"
PERFORMER "Brad Dutz"
PREGAP 00:01:00
INDEX 01 00:00:00
TRACK 02 AUDIO
TITLE "Carniverous Marsupials"
PERFORMER "Brad Dutz"
INDEX 00 07:47:50
FILE "02 - Carniverous Marsupials.wav" WAVE
INDEX 01 00:00:00
TRACK 03 AUDIO
TITLE "Shishkabubble"
PERFORMER "Brad Dutz"
INDEX 00 03:39:41
FILE "03 - Shishkabubble.wav" WAVE
INDEX 01 00:00:00
TRACK 04 AUDIO
TITLE "Contained Freight"
PERFORMER "Brad Dutz"
INDEX 00 09:15:01
FILE "04 - Contained Freight.wav" WAVE
INDEX 01 00:00:00
TRACK 05 AUDIO
TITLE "Triple Latte"
PERFORMER "Brad Dutz"
INDEX 00 06:08:51
FILE "05 - Triple Latte.wav" WAVE
INDEX 01 00:00:00
TRACK 06 AUDIO
TITLE "Chunks"
PERFORMER "Brad Dutz"
INDEX 00 01:14:06
FILE "06 - Chunks.wav" WAVE
INDEX 01 00:00:00
TRACK 07 AUDIO
TITLE "Zax"
PERFORMER "Brad Dutz"
INDEX 00 08:07:20
FILE "07 - Zax.wav" WAVE
INDEX 01 00:00:00
TRACK 08 AUDIO
TITLE "Zanjan"
PERFORMER "Brad Dutz"
INDEX 00 08:06:09
FILE "08 - Zanjan.wav" WAVE
INDEX 01 00:00:00
TRACK 09 AUDIO
TITLE "Heat The Grill"
PERFORMER "Brad Dutz"
INDEX 00 01:27:46
FILE "09 - Heat The Grill.wav" WAVE
INDEX 01 00:00:00
TRACK 10 AUDIO
TITLE "Fish Don't Cough"
PERFORMER "Brad Dutz"
INDEX 00 07:38:72
FILE "10 - Fish Don't Cough.wav" WAVE
INDEX 01 00:00:00
TRACK 11 AUDIO
TITLE "Bamburg"
PERFORMER "Brad Dutz"
INDEX 00 08:00:24
FILE "11 - Bamburg.wav" WAVE
INDEX 01 00:00:00
TRACK 12 AUDIO
TITLE "It Does Not Matter If You Get A Hint On The Quiz"
PERFORMER "Brad Dutz"
INDEX 00 01:17:64
FILE "12 - It Does Not Matter If You Get A Hint On The Quiz.wav" WAVE
INDEX 01 00:00:00
 
Лог проверки качества
d:\>d:\aucdtect -d/-m0 d:\zzz\*.wav
auCDtect: CD records authenticity detector, version 0.8.2
Copyright (c) 2004 Oleg Berngardt. All rights reserved.
Copyright (c) 2004 Alexander Djourik. All rights reserved.
------------------------------------------------------------
Processing file: [01. Sand Helps Cohesion.wav]
------------------------------------------------------------
This track looks like CDDA with probability 100%
------------------------------------------------------------
Processing file: [02. Carniverous Marsupials.wav]
------------------------------------------------------------
This track looks like CDDA with probability 100%
------------------------------------------------------------
Processing file: [03. Shishkabubble.wav]
------------------------------------------------------------
This track looks like CDDA with probability 100%
------------------------------------------------------------
Processing file: [04. Contained Freight.wav]
------------------------------------------------------------
This track looks like CDDA with probability 100%
------------------------------------------------------------
Processing file: [05. Triple Latte.wav]
------------------------------------------------------------
This track looks like CDDA with probability 100%
------------------------------------------------------------
Processing file: [06. Chunks.wav]
------------------------------------------------------------
This track looks like CDDA with probability 100%
------------------------------------------------------------
Processing file: [07. Zax.wav]
------------------------------------------------------------
This track looks like CDDA with probability 86%
------------------------------------------------------------
Processing file: [08. Zanjan.wav]
------------------------------------------------------------
This track looks like CDDA with probability 100%
------------------------------------------------------------
Processing file: [09. Heat The Grill.wav]
------------------------------------------------------------
This track looks like CDDA with probability 100%
------------------------------------------------------------
Processing file: [10. Fish Don't Cough.wav]
------------------------------------------------------------
This track looks like CDDA with probability 100%
------------------------------------------------------------
Processing file: [11. Bamburg.wav]
------------------------------------------------------------
This track looks like CDDA with probability 100%
------------------------------------------------------------
Processing file: [12. It Does Not Matter If You Get A Hint On The Quiz.wav]
------------------------------------------------------------
This track looks like CDDA with probability 100%
------------------------------------------------------------
Final Conclusion:
------------------------------------------------------------
These tracks looks like CDDA with probability 100%
 
Состав
Brad Dutz - miscellaneous percussions with
Acoustic Guitar – Jim Hershman (tracks: 6, 9)
Alto Saxophone – Kim Richmond (tracks: 1, 5, 8, 10 to 12)
Bass Clarinet – Glen Garrett (tracks: 1, 4, 10)
Clarinet – Kim Richmond (tracks: 1, 3, 4, 6, 7, 9, 10)
Double Bass – Trey Henry
Electric Guitar – Joel Harrison (tracks: 6, 10)
Flute – Kim Richmond (tracks: 1, 2, 4)
Soprano Saxophone – Kim Richmond (tracks: 3, 6)
Tenor Saxophone – Vinny Golia (tracks: 6)
Trumpet – Clay Jenkins (tracks: 1, 4, 6, 9), John Fumo (tracks: 1 to 3, 5, 7, 8, 10 to 12)
Tuba – Trey Henry (tracks: 3)
Any questions -> support@pro-jazz.com. По всем вопросам пишите -> support@pro-jazz.com
04:31
137
Нет комментариев. Ваш будет первым!