Вы используете незарегистрированную версию компонента "Вкладки"!

Поиск

(Free Jazz, Contemporary Jazz) Available Jelly (Michael Moore, Eric Boeren, Ernst Glerum, Michael Vatcher, Tobias Delius, Wolter Wierbos) - Baarle Nassau Set 2 - 2011, FLAC (image+.cue), lossless

Треклист:
Available Jelly / Baarle Nassau Set 2
Жанр: Free Jazz, Contemporary Jazz
Страна-производитель диска: Netherlands
Год издания: 2011
Издатель (лейбл): Ramboy Recordings
Номер по каталогу: 28B
Аудиокодек: FLAC (*.flac)
Тип рипа: image+.cue
Битрейт аудио: lossless
Продолжительность: 61:37
Источник (релизер): cd
Наличие сканов в содержимом раздачи: нет
Треклист:
1 Village Of The Virgins 5:12
2 Rat-like 10:24
3 Two Sounds 2:20
4 Father Magpie's Sermon 6:09
5 Arsenius 9:39
6 I'm Just A Lucky So And So 5:39
7 Bundle Of Shorts 8:12
8 Chy 4:19
9 Kwela For Taylor 7:37
 
Лог создания рипа
Exact Audio Copy V1.0 beta 2 from 29. April 2011
EAC extraction logfile from 23. October 2012, 15:29
Available Jelly / Available Jelly Set 2
Used drive : Optiarc DVD RW AD-7170A Adapter: 0 ID: 0
Read mode : Secure
Utilize accurate stream : Yes
Defeat audio cache : Yes
Make use of C2 pointers : No
Read offset correction : 48
Overread into Lead-In and Lead-Out : No
Fill up missing offset samples with silence : Yes
Delete leading and trailing silent blocks : No
Null samples used in CRC calculations : Yes
Used interface : Native Win32 interface for Win NT & 2000
Used output format : User Defined Encoder
Selected bitrate : 320 kBit/s
Quality : High
Add ID3 tag : No
Command line compressor : C:\Program Files\Exact Audio Copy\Flac\flac.exe
Additional command line options : -V -8 -T "Date=%year%" -T "Genre=%genre%" %source%
TOC of the extracted CD
Track | Start | Length | Start sector | End sector
---------------------------------------------------------
1 | 0:00.00 | 5:09.28 | 0 | 23202
2 | 5:09.28 | 10:24.02 | 23203 | 70004
3 | 15:33.30 | 2:18.13 | 70005 | 80367
4 | 17:51.43 | 9:38.08 | 80368 | 123725
5 | 27:29.51 | 5:48.46 | 123726 | 149871
6 | 33:18.22 | 8:12.34 | 149872 | 186805
7 | 41:30.56 | 4:16.59 | 186806 | 206064
8 | 45:47.40 | 8:33.50 | 206065 | 244589
9 | 54:21.15 | 7:16.47 | 244590 | 277336
Range status and errors
Selected range
Filename K:\ЕАС\Available Jelly - Available Jelly Set 2.wav
Peak level 97.6 %
Extraction speed 2.1 X
Range quality 99.9 %
Test CRC 27F7DF90
Copy CRC 27F7DF90
Copy OK
No errors occurred
AccurateRip summary
Track 1 not present in database
Track 2 not present in database
Track 3 not present in database
Track 4 not present in database
Track 5 not present in database
Track 6 not present in database
Track 7 not present in database
Track 8 not present in database
Track 9 not present in database
None of the tracks are present in the AccurateRip database
End of status report
==== Log checksum C7E1E370B4AE0072190A75576AA8110F5B125640236C1B4A64D27E1D1DEF90F9 ====
 
Содержание индексной карты (.CUE)
REM GENRE Jazz
REM DATE 2011
REM DISCID 670E7109
REM COMMENT "ExactAudioCopy v1.0b2"
PERFORMER "Available Jelly"
TITLE "Available Jelly Set 2"
FILE "Available Jelly - Available Jelly Set 2.flac" WAVE
TRACK 01 AUDIO
TITLE "Village of the Virgins"
PERFORMER "Available Jelly"
ISRC 000000000000
INDEX 01 00:00:00
TRACK 02 AUDIO
TITLE "Rat-like Box"
PERFORMER "Available Jelly"
ISRC 000000000000
INDEX 00 05:07:28
INDEX 01 05:09:28
TRACK 03 AUDIO
TITLE "Two Sounds"
PERFORMER "Available Jelly"
ISRC 000000000000
INDEX 00 15:31:30
INDEX 01 15:33:30
TRACK 04 AUDIO
TITLE "Father Magpie's SSermon"
PERFORMER "Available Jelly"
ISRC 000000000000
INDEX 01 17:51:43
TRACK 05 AUDIO
TITLE "I'm Just a Lucky So and So"
PERFORMER "Available Jelly"
ISRC 000000000000
INDEX 01 27:29:51
TRACK 06 AUDIO
TITLE "Bundle of Shorts"
PERFORMER "Available Jelly"
ISRC 000000000000
INDEX 00 33:16:22
INDEX 01 33:18:22
TRACK 07 AUDIO
TITLE "Chy"
PERFORMER "Available Jelly"
ISRC 000000000000
INDEX 00 41:28:56
INDEX 01 41:30:56
TRACK 08 AUDIO
TITLE "The Feeling of Jazz"
PERFORMER "Available Jelly"
ISRC 000000000000
INDEX 01 45:47:40
TRACK 09 AUDIO
TITLE "Kwela for Taylor"
PERFORMER "Available Jelly"
ISRC 000000000000
INDEX 00 54:19:15
INDEX 01 54:21:15
Доп. информация: Recorded at Plushok, Baarle Nassau, NL, 3 march, 2007
 
Состав
Alto Saxophone, Clarinet – Michael Moore
Cornet – Eric Boeren
Double Bass – Ernst Glerum
Drums, Percussion – Michael Vatcher
Tenor Saxophone, Clarinet – Tobias Delius
Trombone – Wolter Wierbos
Any questions -> support@pro-jazz.com. По всем вопросам пишите -> support@pro-jazz.com
04:32
150
Нет комментариев. Ваш будет первым!