Вы используете незарегистрированную версию компонента "Вкладки"!

Поиск

(Free Jazz, Contemporary Jazz, Free Improvisation) Daniele D'Agaro, Alexander von Schlippenbach, Han Bennink - Fingerprints - 2010, FLAC (image+.cue), lossless

(Free Jazz, Contemporary Jazz, Free Improvisation) Daniele D'Agaro, Alexander von Schlippenbach, Han Bennink - Fingerprints - 2010, FLAC (image+.cue), lossless
Треклист:
Daniele D'Agaro, Alexander von Schlippenbach, Han Bennink / Fingerprints
Жанр: Free Jazz, Contemporary Jazz, Free Improvisation
Страна-производитель диска: Italy
Год издания: 2010
Издатель (лейбл): Artesuono
Номер по каталогу: art 092
Аудиокодек: FLAC (*.flac)
Тип рипа: image+.cue
Битрейт аудио: lossless
Продолжительность: 47:45
Источник (релизер): cd
Наличие сканов в содержимом раздачи: нет
Треклист:
1 Impro # 04 6:12
2 Impro # 10 3:19
3 Impro # 11 6:00
4 Impro # 07 4:53
5 Every Cloud 4:17
6 Impro # 18 8:14
7 Impro # 19 3:39
8 Impro # 05 6:46
9 Impro # 20 4:06
 
Лог создания рипа
Exact Audio Copy V1.0 beta 2 from 29. April 2011
EAC extraction logfile from 24. October 2012, 13:09
Daniele D'Agaro, Alexander Von Schlippenbach, Han Bennink / Fingerprints
Used drive : Optiarc DVD RW AD-7170A Adapter: 0 ID: 0
Read mode : Secure
Utilize accurate stream : Yes
Defeat audio cache : Yes
Make use of C2 pointers : No
Read offset correction : 48
Overread into Lead-In and Lead-Out : No
Fill up missing offset samples with silence : Yes
Delete leading and trailing silent blocks : No
Null samples used in CRC calculations : Yes
Used interface : Native Win32 interface for Win NT & 2000
Used output format : User Defined Encoder
Selected bitrate : 320 kBit/s
Quality : High
Add ID3 tag : No
Command line compressor : C:\Program Files\Exact Audio Copy\Flac\flac.exe
Additional command line options : -V -8 -T "Date=%year%" -T "Genre=%genre%" %source%
TOC of the extracted CD
Track | Start | Length | Start sector | End sector
---------------------------------------------------------
1 | 0:00.00 | 6:14.14 | 0 | 28063
2 | 6:14.14 | 3:21.40 | 28064 | 43178
3 | 9:35.54 | 6:02.59 | 43179 | 70387
4 | 15:38.38 | 4:55.00 | 70388 | 92512
5 | 20:33.38 | 4:19.13 | 92513 | 111950
6 | 24:52.51 | 8:16.22 | 111951 | 149172
7 | 33:08.73 | 3:41.15 | 149173 | 165762
8 | 36:50.13 | 6:48.41 | 165763 | 196403
9 | 43:38.54 | 4:06.25 | 196404 | 214878
Range status and errors
Selected range
Filename K:\ЕАС\Daniele D'Agaro, Alexander Von Schlippenbach, Han Bennink - Fingerprints.wav
Peak level 96.6 %
Extraction speed 2.0 X
Range quality 100.0 %
Test CRC CE125713
Copy CRC CE125713
Copy OK
No errors occurred
AccurateRip summary
Track 1 accurately ripped (confidence 1) [B0482500] (AR v2)
Track 2 accurately ripped (confidence 1) [8FE6BE73] (AR v2)
Track 3 accurately ripped (confidence 1) [48C13C89] (AR v2)
Track 4 accurately ripped (confidence 1) [58BD97DF] (AR v2)
Track 5 accurately ripped (confidence 1) [326F9AAB] (AR v2)
Track 6 accurately ripped (confidence 1) [F4246890] (AR v2)
Track 7 accurately ripped (confidence 1) [64D35930] (AR v2)
Track 8 accurately ripped (confidence 1) [DCF33B8F] (AR v2)
Track 9 accurately ripped (confidence 1) [27ED8247] (AR v2)
All tracks accurately ripped
End of status report
==== Log checksum 58AD7496B1A880F82C45C5692D68A945A6BAFE7A15FF4925C170154F9F875B2E ====
 
Содержание индексной карты (.CUE)
REM GENRE Jazz
REM DATE 2010
REM DISCID 730B3109
REM COMMENT "ExactAudioCopy v1.0b2"
CATALOG 8028958000929
PERFORMER "Daniele D'Agaro, Alexander Von Schlippenbach, Han Bennink"
TITLE "Fingerprints"
FILE "Daniele D'Agaro, Alexander Von Schlippenbach, Han Bennink - Fingerprints.flac" WAVE
TRACK 01 AUDIO
TITLE "Impro#04"
PERFORMER "Daniele D'Agaro, Alexander Von Schlippenbach, Han Bennink"
ISRC ITI351000105
INDEX 01 00:00:00
TRACK 02 AUDIO
TITLE "Impro#10"
PERFORMER "Daniele D'Agaro, Alexander Von Schlippenbach, Han Bennink"
ISRC ITI351000106
INDEX 00 06:12:14
INDEX 01 06:14:14
TRACK 03 AUDIO
TITLE "Impro#11"
PERFORMER "Daniele D'Agaro, Alexander Von Schlippenbach, Han Bennink"
ISRC ITI351000107
INDEX 00 09:33:54
INDEX 01 09:35:54
TRACK 04 AUDIO
TITLE "Impro#07"
PERFORMER "Daniele D'Agaro, Alexander Von Schlippenbach, Han Bennink"
ISRC ITI351000108
INDEX 00 15:36:38
INDEX 01 15:38:38
TRACK 05 AUDIO
TITLE "Every Cloud"
PERFORMER "Daniele D'Agaro, Alexander Von Schlippenbach, Han Bennink"
ISRC ITI351000109
INDEX 00 20:31:38
INDEX 01 20:33:38
TRACK 06 AUDIO
TITLE "Impro#18"
PERFORMER "Daniele D'Agaro, Alexander Von Schlippenbach, Han Bennink"
ISRC ITI351000110
INDEX 00 24:50:51
INDEX 01 24:52:51
TRACK 07 AUDIO
TITLE "Impro#19"
PERFORMER "Daniele D'Agaro, Alexander Von Schlippenbach, Han Bennink"
ISRC ITI351000111
INDEX 00 33:06:73
INDEX 01 33:08:73
TRACK 08 AUDIO
TITLE "Impro#05"
PERFORMER "Daniele D'Agaro, Alexander Von Schlippenbach, Han Bennink"
ISRC ITI351000112
INDEX 00 36:48:13
INDEX 01 36:50:13
TRACK 09 AUDIO
TITLE "Impro#20"
PERFORMER "Daniele D'Agaro, Alexander Von Schlippenbach, Han Bennink"
ISRC ITI351000113
INDEX 00 43:36:54
INDEX 01 43:38:54
 
Состав
Clarinet, Tenor Saxophone – Daniele D'Agaro
Drums – Han Bennink
Piano – Alexander von Schlippenbach
Piano [Prepared] – Alexander von Schlippenbach (tracks: 7, 9)
Any questions -> support@pro-jazz.com. По всем вопросам пишите -> support@pro-jazz.com
04:32
148
Нет комментариев. Ваш будет первым!