Вы используете незарегистрированную версию компонента "Вкладки"!

Поиск

(Free Jazz, Contemporary Jazz) The Michael Jefry Stevens / Dominic Duval Quintet (Mark Whitecage, Jay Rosen, Dom Minasi) - Elements - 1996, FLAC (image+.cue), lossless

(Free Jazz, Contemporary Jazz) The Michael Jefry Stevens / Dominic Duval Quintet (Mark Whitecage, Jay Rosen, Dom Minasi) - Elements - 1996, FLAC (image+.cue), lossless
Треклист:
The Michael Jefry Stevens & Dominic Duval Quintet / Elements
Жанр: Free Jazz, Contemporary Jazz
Страна-производитель диска: UK
Год издания: 1996
Издатель (лейбл): Leo Records
Номер по каталогу: CD LR 241
Аудиокодек: FLAC (*.flac)
Тип рипа: image+.cue
Битрейт аудио: lossless
Продолжительность: 50:38
Источник (релизер): cd
Наличие сканов в содержимом раздачи: нет
Треклист:
1 Air 5:45
2 Earth 5:32
3 Earth II 3:55
4 Water / Earth 2:10
5 Air II 1:34
6 Fire 2:53
7 Air /Water 3:24
8 Fire II 2:17
9 Water 2:55
10 Air III 2:26
11 Water / Air 1:53
12 Coda (Resist) 11:47
13 Epilogue 3:24
 
Лог создания рипа
Exact Audio Copy V1.0 beta 2 from 29. April 2011
EAC extraction logfile from 17. August 2013, 12:04
Michael Jefry Stevens & Dominic Duval Quintet / Elements
Used drive : Optiarc DVD RW AD-7170A Adapter: 0 ID: 0
Read mode : Secure
Utilize accurate stream : Yes
Defeat audio cache : Yes
Make use of C2 pointers : No
Read offset correction : 48
Overread into Lead-In and Lead-Out : No
Fill up missing offset samples with silence : Yes
Delete leading and trailing silent blocks : No
Null samples used in CRC calculations : Yes
Used interface : Native Win32 interface for Win NT & 2000
Used output format : User Defined Encoder
Selected bitrate : 320 kBit/s
Quality : High
Add ID3 tag : No
Command line compressor : C:\Program Files\Exact Audio Copy\Flac\flac.exe
Additional command line options : -V -8 -T "Date=%year%" -T "Genre=%genre%" %source%
TOC of the extracted CD
Track | Start | Length | Start sector | End sector
---------------------------------------------------------
1 | 0:00.00 | 5:50.15 | 0 | 26264
2 | 5:50.15 | 5:35.57 | 26265 | 51446
3 | 11:25.72 | 3:58.68 | 51447 | 69364
4 | 15:24.65 | 2:12.37 | 69365 | 79301
5 | 17:37.27 | 1:36.15 | 79302 | 86516
6 | 19:13.42 | 2:56.70 | 86517 | 99786
7 | 22:10.37 | 3:28.08 | 99787 | 115394
8 | 25:38.45 | 2:17.32 | 115395 | 125701
9 | 27:56.02 | 2:59.18 | 125702 | 139144
10 | 30:55.20 | 2:32.12 | 139145 | 150556
11 | 33:27.32 | 1:56.10 | 150557 | 159266
12 | 35:23.42 | 11:49.20 | 159267 | 212461
13 | 47:12.62 | 3:25.33 | 212462 | 227869
Range status and errors
Selected range
Filename K:\ЕАС\Michael Jefry Stevens & Dominic Duval Quintet - Elements.wav
Peak level 100.0 %
Extraction speed 1.9 X
Range quality 100.0 %
Test CRC C27BD430
Copy CRC C27BD430
Copy OK
No errors occurred
AccurateRip summary
Track 1 cannot be verified as accurate (confidence 1) [6A10DC41], AccurateRip returned [B4E90AE2] (AR v2)
Track 2 cannot be verified as accurate (confidence 1) [45AF7E0E], AccurateRip returned [5AE84ED1] (AR v2)
Track 3 cannot be verified as accurate (confidence 1) [793C00AD], AccurateRip returned [4B4D4AE7] (AR v2)
Track 4 cannot be verified as accurate (confidence 1) [710E6DA9], AccurateRip returned [8DD8DBAD] (AR v2)
Track 5 cannot be verified as accurate (confidence 1) [89826C8A], AccurateRip returned [D149EDED] (AR v2)
Track 6 cannot be verified as accurate (confidence 1) [409744CA], AccurateRip returned [C2444DA7] (AR v2)
Track 7 cannot be verified as accurate (confidence 1) [7C235B45], AccurateRip returned [9F330311] (AR v2)
Track 8 cannot be verified as accurate (confidence 1) [676A9817], AccurateRip returned [EEC91FEF] (AR v2)
Track 9 cannot be verified as accurate (confidence 1) [F10BF1F3], AccurateRip returned [5B583154] (AR v2)
Track 10 cannot be verified as accurate (confidence 1) [285295E5], AccurateRip returned [67F9A730] (AR v2)
Track 11 cannot be verified as accurate (confidence 1) [B6FD7A00], AccurateRip returned [FF886CD4] (AR v2)
Track 12 cannot be verified as accurate (confidence 1) [1E46C278], AccurateRip returned [3610DA7D] (AR v2)
Track 13 cannot be verified as accurate (confidence 1) [BA904D2E], AccurateRip returned [AF3F120A] (AR v2)
No tracks could be verified as accurate
You may have a different pressing from the one(s) in the database
End of status report
==== Log checksum A94AF60E04CF1A867E7A65CC4E0EC145F4AF2C2A7A60BF39C6AE5FB97ADB4C7D ====
 
Содержание индексной карты (.CUE)
REM GENRE Jazz
REM DATE 1996
REM DISCID B10BDE0D
REM COMMENT "ExactAudioCopy v1.0b2"
CATALOG 0000000000000
PERFORMER "Michael Jefry Stevens & Dominic Duval Quintet"
TITLE "Elements"
FILE "Michael Jefry Stevens & Dominic Duval Quintet - Elements.flac" WAVE
TRACK 01 AUDIO
TITLE "Air"
PERFORMER "Michael Jefry Stevens & Dominic Duval Quintet"
ISRC 000000000000
INDEX 01 00:00:00
TRACK 02 AUDIO
TITLE "Earth"
PERFORMER "Michael Jefry Stevens & Dominic Duval Quintet"
ISRC 000000000000
INDEX 00 05:46:40
INDEX 01 05:50:15
TRACK 03 AUDIO
TITLE "Earth II"
PERFORMER "Michael Jefry Stevens & Dominic Duval Quintet"
ISRC 000000000000
INDEX 00 11:22:52
INDEX 01 11:25:72
TRACK 04 AUDIO
TITLE "Water / Earth"
PERFORMER "Michael Jefry Stevens & Dominic Duval Quintet"
ISRC 000000000000
INDEX 00 15:22:00
INDEX 01 15:24:65
TRACK 05 AUDIO
TITLE "Air II"
PERFORMER "Michael Jefry Stevens & Dominic Duval Quintet"
ISRC 000000000000
INDEX 00 17:35:25
INDEX 01 17:37:27
TRACK 06 AUDIO
TITLE "Fire"
PERFORMER "Michael Jefry Stevens & Dominic Duval Quintet"
ISRC 000000000000
INDEX 00 19:11:10
INDEX 01 19:13:42
TRACK 07 AUDIO
TITLE "Air / Water"
PERFORMER "Michael Jefry Stevens & Dominic Duval Quintet"
ISRC 000000000000
INDEX 00 22:06:45
INDEX 01 22:10:37
TRACK 08 AUDIO
TITLE "Fire II"
PERFORMER "Michael Jefry Stevens & Dominic Duval Quintet"
ISRC 000000000000
INDEX 00 25:34:47
INDEX 01 25:38:45
TRACK 09 AUDIO
TITLE "Water"
PERFORMER "Michael Jefry Stevens & Dominic Duval Quintet"
ISRC 000000000000
INDEX 00 27:54:60
INDEX 01 27:56:02
TRACK 10 AUDIO
TITLE "Air III"
PERFORMER "Michael Jefry Stevens & Dominic Duval Quintet"
ISRC 000000000000
INDEX 00 30:51:47
INDEX 01 30:55:20
TRACK 11 AUDIO
TITLE "Water / Air"
PERFORMER "Michael Jefry Stevens & Dominic Duval Quintet"
ISRC 000000000000
INDEX 00 33:22:15
INDEX 01 33:27:32
TRACK 12 AUDIO
TITLE "Coda (Resist)"
PERFORMER "Michael Jefry Stevens & Dominic Duval Quintet"
ISRC 000000000000
INDEX 00 35:19:25
INDEX 01 35:23:42
TRACK 13 AUDIO
TITLE "Epilogue"
PERFORMER "Michael Jefry Stevens & Dominic Duval Quintet"
ISRC 000000000000
INDEX 00 47:10:35
INDEX 01 47:12:62
Доп. информация: Recorded at Acoustic Recording, Brooklyn, N.Y. 24.3.94
 
Состав
Alto Saxophone, Soprano Saxophone – Mark Whitecage
Bass – Dominic Duval
Drums – Jay Rosen
Guitar – Dom Minasi
Piano – Michael Jefry Stevens
По всем вопросам пишите личное сообщение пользователю M0p94ok.
17:18
134
Нет комментариев. Ваш будет первым!