Вы используете незарегистрированную версию компонента "Вкладки"!

Поиск

(Free Jazz) Marilyn Crispell (Hank Roberts, Mark Feldman, Gerry Hemingway) - Santuerio - 1993, FLAC (image+.cue), lossless

(Free Jazz) Marilyn Crispell (Hank Roberts, Mark Feldman, Gerry Hemingway) - Santuerio - 1993, FLAC (image+.cue), lossless
Треклист:
Marilyn Crispell / Santuerio
Жанр: Free Jazz
Страна-производитель диска: UK
Год издания: 1993
Издатель (лейбл): Leo Records
Номер по каталогу: CD LR 191
Аудиокодек: FLAC (*.flac)
Тип рипа: image+.cue
Битрейт аудио: lossless
Продолжительность: 68:48
Источник (релизер): cd
Наличие сканов в содержимом раздачи: нет
Треклист:
1 Entrances Of Light 6:07
2 Air / Fire 10:28
3 Water 2:54
4 Burning Air / Wood 4:58
5 Santuerio 13:20
6 Repercussions Of Light 9:26
7 Red Shift 13:40
8 Repercussions Of Air I / Repercussions Of Air II 7:24
 
Лог создания рипа
Exact Audio Copy V1.0 beta 2 from 29. April 2011
EAC extraction logfile from 17. August 2013, 13:20
Marilyn Crispell / Santuerio
Used drive : Optiarc DVD RW AD-7170A Adapter: 0 ID: 0
Read mode : Secure
Utilize accurate stream : Yes
Defeat audio cache : Yes
Make use of C2 pointers : No
Read offset correction : 48
Overread into Lead-In and Lead-Out : No
Fill up missing offset samples with silence : Yes
Delete leading and trailing silent blocks : No
Null samples used in CRC calculations : Yes
Used interface : Native Win32 interface for Win NT & 2000
Used output format : User Defined Encoder
Selected bitrate : 320 kBit/s
Quality : High
Add ID3 tag : No
Command line compressor : C:\Program Files\Exact Audio Copy\Flac\flac.exe
Additional command line options : -V -8 -T "Date=%year%" -T "Genre=%genre%" %source%
TOC of the extracted CD
Track | Start | Length | Start sector | End sector
---------------------------------------------------------
1 | 0:00.32 | 6:10.20 | 32 | 27801
2 | 6:10.52 | 10:32.58 | 27802 | 75259
3 | 16:43.35 | 2:57.67 | 75260 | 88601
4 | 19:41.27 | 5:01.08 | 88602 | 111184
5 | 24:42.35 | 13:24.22 | 111185 | 171506
6 | 38:06.57 | 9:32.43 | 171507 | 214449
7 | 47:39.25 | 13:44.17 | 214450 | 276266
8 | 61:23.42 | 7:25.38 | 276267 | 309679
Range status and errors
Selected range
Filename K:\ЕАС\Marilyn Crispell - Santuerio.wav
Peak level 97.2 %
Extraction speed 2.2 X
Range quality 99.9 %
Test CRC 58217871
Copy CRC 58217871
Copy OK
No errors occurred
AccurateRip summary
Track 1 not present in database
Track 2 not present in database
Track 3 not present in database
Track 4 not present in database
Track 5 not present in database
Track 6 not present in database
Track 7 not present in database
Track 8 not present in database
None of the tracks are present in the AccurateRip database
End of status report
==== Log checksum A72AE262D772323802326DA3F3DD9F8B69B0050EBE99BC1256CF8A3556A17280 ====
 
Содержание индексной карты (.CUE)
REM GENRE Jazz
REM DATE 1993
REM DISCID 6D102108
REM COMMENT "ExactAudioCopy v1.0b2"
PERFORMER "Marilyn Crispell"
TITLE "Santuerio"
FILE "Marilyn Crispell - Santuerio.flac" WAVE
TRACK 01 AUDIO
TITLE "Entrances of Light"
PERFORMER "Marilyn Crispell"
INDEX 00 00:00:00
INDEX 01 00:00:32
TRACK 02 AUDIO
TITLE "Air - Fire"
PERFORMER "Marilyn Crispell"
INDEX 00 06:09:05
INDEX 01 06:10:52
TRACK 03 AUDIO
TITLE "Water"
PERFORMER "Marilyn Crispell"
INDEX 00 16:39:72
INDEX 01 16:43:35
TRACK 04 AUDIO
TITLE "Burning Air - Wood"
PERFORMER "Marilyn Crispell"
INDEX 00 19:39:07
INDEX 01 19:41:27
TRACK 05 AUDIO
TITLE "Santuerio"
PERFORMER "Marilyn Crispell"
INDEX 00 24:40:50
INDEX 01 24:42:35
TRACK 06 AUDIO
TITLE "Repercussions of Light"
PERFORMER "Marilyn Crispell"
INDEX 00 38:04:00
INDEX 01 38:06:57
TRACK 07 AUDIO
TITLE "Red Shift"
PERFORMER "Marilyn Crispell"
INDEX 00 47:36:40
INDEX 01 47:39:25
TRACK 08 AUDIO
TITLE "Repercussions of Air I & II"
PERFORMER "Marilyn Crispell"
INDEX 00 61:21:22
INDEX 01 61:23:42
Доп. информация: Recorded live and in the studio on 5 May 1993 at Roulette, NYC.
 
Состав
Cello – Hank Roberts
Drums – Gerry Hemingway
Piano, Producer, Composed By – Marilyn Crispell
Violin – Mark Feldman
Any questions -> support@pro-jazz.com. По всем вопросам пишите -> support@pro-jazz.com
17:18
124
Нет комментариев. Ваш будет первым!