Вы используете незарегистрированную версию компонента "Вкладки"!

Поиск

(Free Improvisation) Uwe Oberg, Georg Wolf, Jorg Fischer - LO - 1997, FLAC (image+.cue), lossless

(Free Improvisation) Uwe Oberg, Georg Wolf, Jorg Fischer - LO - 1997, FLAC (image+.cue), lossless
Треклист:
Uwe Oberg, Georg Wolf, Jorg Fischer / > LO <
Жанр: Free Improvisation
Страна-производитель диска: UK
Год издания: 1997
Издатель (лейбл): Leo Lab
Номер по каталогу: CD 030
Аудиокодек: FLAC (*.flac)
Тип рипа: image+.cue
Битрейт аудио: lossless
Продолжительность: 63:21
Источник (релизер): cd
Наличие сканов в содержимом раздачи: нет
Треклист:
1 Lotion 8:19
2 Loco 6:51
3 Lontano 6:14
4 Valid Interim II 3:33
5 Lostloose 6:41
6 A Lot 15:50
7 Loxodrom 10:34
8 Valid Interim I (To Charlotte) 4:39
 
Лог создания рипа
Exact Audio Copy V1.0 beta 2 from 29. April 2011
EAC extraction logfile from 15. August 2013, 16:49
Uwe Oberg, Georg Wolf, Jorg Fischer / LO
Used drive : Optiarc DVD RW AD-7170A Adapter: 0 ID: 0
Read mode : Secure
Utilize accurate stream : Yes
Defeat audio cache : Yes
Make use of C2 pointers : No
Read offset correction : 48
Overread into Lead-In and Lead-Out : No
Fill up missing offset samples with silence : Yes
Delete leading and trailing silent blocks : No
Null samples used in CRC calculations : Yes
Used interface : Native Win32 interface for Win NT & 2000
Used output format : User Defined Encoder
Selected bitrate : 320 kBit/s
Quality : High
Add ID3 tag : No
Command line compressor : C:\Program Files\Exact Audio Copy\Flac\flac.exe
Additional command line options : -V -8 -T "Date=%year%" -T "Genre=%genre%" %source%
TOC of the extracted CD
Track | Start | Length | Start sector | End sector
---------------------------------------------------------
1 | 0:00.50 | 8:24.00 | 50 | 37849
2 | 8:24.50 | 6:56.00 | 37850 | 69049
3 | 15:20.50 | 6:19.00 | 69050 | 97474
4 | 21:39.50 | 3:39.00 | 97475 | 113899
5 | 25:18.50 | 6:49.00 | 113900 | 144574
6 | 32:07.50 | 15:56.00 | 144575 | 216274
7 | 48:03.50 | 10:39.00 | 216275 | 264199
8 | 58:42.50 | 4:39.02 | 264200 | 285126
Range status and errors
Selected range
Filename K:\ЕАС\Uwe Oberg, Georg Wolf, Jorg Fischer - LO.wav
Peak level 99.0 %
Extraction speed 1.6 X
Range quality 99.8 %
Test CRC F2F36682
Copy CRC F2F36682
Copy OK
No errors occurred
AccurateRip summary
Track 1 accurately ripped (confidence 1) [9B235571] (AR v2)
Track 2 accurately ripped (confidence 1) [AFB7B414] (AR v2)
Track 3 accurately ripped (confidence 1) [3FE48C47] (AR v2)
Track 4 accurately ripped (confidence 1) [73D6B927] (AR v2)
Track 5 accurately ripped (confidence 1) [3FDF0517] (AR v2)
Track 6 accurately ripped (confidence 1) [FAE2C18C] (AR v2)
Track 7 accurately ripped (confidence 1) [647BC125] (AR v2)
Track 8 accurately ripped (confidence 1) [02511925] (AR v2)
All tracks accurately ripped
End of status report
==== Log checksum C2018B9D0FDD8D38F41696F74C9B10C8D0A583BF25D937D8BC7F49425D656408 ====
 
Содержание индексной карты (.CUE)
REM GENRE Jazz
REM DATE 1997
REM DISCID 610ED908
REM COMMENT "ExactAudioCopy v1.0b2"
CATALOG 0000000000000
PERFORMER "Uwe Oberg, Georg Wolf, Jorg Fischer"
TITLE "LO"
FILE "Uwe Oberg, Georg Wolf, Jorg Fischer - LO.flac" WAVE
TRACK 01 AUDIO
TITLE "Lotion"
PERFORMER "Uwe Oberg, Georg Wolf, Jorg Fischer"
ISRC 000000000000
INDEX 00 00:00:00
INDEX 01 00:00:50
TRACK 02 AUDIO
TITLE "Loco"
PERFORMER "Uwe Oberg, Georg Wolf, Jorg Fischer"
ISRC 000000000000
INDEX 00 08:19:50
INDEX 01 08:24:50
TRACK 03 AUDIO
TITLE "Lontano"
PERFORMER "Uwe Oberg, Georg Wolf, Jorg Fischer"
ISRC 000000000000
INDEX 00 15:15:50
INDEX 01 15:20:50
TRACK 04 AUDIO
TITLE "Valid Interim II"
PERFORMER "Uwe Oberg, Georg Wolf, Jorg Fischer"
ISRC 000000000000
INDEX 00 21:34:50
INDEX 01 21:39:50
TRACK 05 AUDIO
TITLE "Lostloose"
PERFORMER "Uwe Oberg, Georg Wolf, Jorg Fischer"
ISRC 000000000000
INDEX 00 25:12:50
INDEX 01 25:18:50
TRACK 06 AUDIO
TITLE "A Lot"
PERFORMER "Uwe Oberg, Georg Wolf, Jorg Fischer"
ISRC 000000000000
INDEX 00 31:59:50
INDEX 01 32:07:50
TRACK 07 AUDIO
TITLE "Loxodrom"
PERFORMER "Uwe Oberg, Georg Wolf, Jorg Fischer"
ISRC 000000000000
INDEX 00 47:57:50
INDEX 01 48:03:50
TRACK 08 AUDIO
TITLE "Valid Interim I (To Charlotte)"
PERFORMER "Uwe Oberg, Georg Wolf, Jorg Fischer"
ISRC 000000000000
INDEX 01 58:42:50
Доп. информация: Recorded June 5, 1996, Loft, Cologne
 
Состав
Bass – Georg Wolf
Drums, Percussion – Jorg Fischer
Piano – Uwe Oberg
Any questions -> support@pro-jazz.com. По всем вопросам пишите -> support@pro-jazz.com
17:17
133
Нет комментариев. Ваш будет первым!