Вы используете незарегистрированную версию компонента "Вкладки"!

Поиск

(Free Jazz, Contemporary Jazz) Michael Waldrop (w/ Brad Dutz, Joel Hamilton, Wayne Peet) - Inner Truth - 2010, FLAC (tracks+.cue), lossless

(Free Jazz, Contemporary Jazz) Michael Waldrop (w/ Brad Dutz, Joel Hamilton, Wayne Peet) - Inner Truth - 2010, FLAC (tracks+.cue), lossless
Треклист:
Michael Waldrop / Inner Truth
Жанр: Free Jazz, Contemporary Jazz
Страна-производитель диска: US
Год издания: 2010
Издатель (лейбл): Michael Waldrop self-released CD-R
Номер по каталогу: -
Страна: US
Аудиокодек: FLAC (*.flac)
Тип рипа: tracks+.cue
Битрейт аудио: lossless
Продолжительность: 44:12
Источник (релизер): свой фирменный диск
Наличие сканов в содержимом раздачи:
Треклист:
1. Munich Musings
2. Bitter End
3. 92 Degrees
4. Inner Truth
5. Bloody Oil
6. Languid
7. Vera Cruz
8. Tortoise Efficiency
 
Лог создания рипа
Exact Audio Copy V1.0 beta 3 from 29. August 2011
EAC extraction logfile from 22. August 2013, 23:30
Michael Waldrop / Inner Truth
Used drive : TSSTcorpCDDVDW SH-222AB Adapter: 1 ID: 0
Read mode : Secure
Utilize accurate stream : Yes
Defeat audio cache : Yes
Make use of C2 pointers : No
Read offset correction : 6
Overread into Lead-In and Lead-Out : No
Fill up missing offset samples with silence : Yes
Delete leading and trailing silent blocks : No
Null samples used in CRC calculations : Yes
Used interface : Installed external ASPI interface
Gap handling : Appended to previous track
Used output format : User Defined Encoder
Selected bitrate : 896 kBit/s
Quality : High
Add ID3 tag : No
Command line compressor : C:\Program Files\Exact Audio Copy\FLAC\FLAC.EXE
Additional command line options : -6 -V -T "ARTIST=%artist%" -T "TITLE=%title%" -T "ALBUM=%albumtitle%" -T "DATE=%year%" -T "TRACKNUMBER=%tracknr%" -T "GENRE=%genre%" -T "COMMENT=%comment%" -T "BAND=%albuminterpret%" -T "COMPOSER=%composer%" %haslyrics%--tag-from-file=LYRICS="%lyricsfile%"%haslyrics% -T "DISCNUMBER=%cdnumber%" -T "TOTALDISCS=%totalcds%" -T "TOTALTRACKS=%numtracks%" %hascover%--picture="%coverfile%"%hascover% %source% -o %dest%
TOC of the extracted CD
Track | Start | Length | Start sector | End sector
---------------------------------------------------------
1 | 0:00.00 | 6:51.72 | 0 | 30896
2 | 6:51.72 | 4:46.18 | 30897 | 52364
3 | 11:38.15 | 5:07.03 | 52365 | 75392
4 | 16:45.18 | 4:44.26 | 75393 | 96718
5 | 21:29.44 | 5:10.40 | 96719 | 120008
6 | 26:40.09 | 6:51.67 | 120009 | 150900
7 | 33:32.01 | 6:15.17 | 150901 | 179042
8 | 39:47.18 | 4:25.37 | 179043 | 198954
Track 1
Filename D:\zzz\01 - Munich Musings.wav
Pre-gap length 0:00:02.00
Peak level 100.0 %
Extraction speed 2.9 X
Track quality 100.0 %
Test CRC 4645ED04
Copy CRC 4645ED04
Track not present in AccurateRip database
Copy OK
Track 2
Filename D:\zzz\02 - Bitter End.wav
Peak level 100.0 %
Extraction speed 2.8 X
Track quality 100.0 %
Test CRC 7B26BBD5
Copy CRC 7B26BBD5
Track not present in AccurateRip database
Copy OK
Track 3
Filename D:\zzz\03 - 92 Degrees.wav
Peak level 99.9 %
Extraction speed 2.8 X
Track quality 100.0 %
Test CRC F7548DDC
Copy CRC F7548DDC
Track not present in AccurateRip database
Copy OK
Track 4
Filename D:\zzz\04 - Inner Truth.wav
Peak level 76.7 %
Extraction speed 2.8 X
Track quality 100.0 %
Test CRC 1D843385
Copy CRC 1D843385
Track not present in AccurateRip database
Copy OK
Track 5
Filename D:\zzz\05 - Bloody Oil.wav
Peak level 96.6 %
Extraction speed 2.8 X
Track quality 100.0 %
Test CRC 9B1A09E2
Copy CRC 9B1A09E2
Track not present in AccurateRip database
Copy OK
Track 6
Filename D:\zzz\06 - Languid.wav
Peak level 100.0 %
Extraction speed 2.8 X
Track quality 100.0 %
Test CRC F8D41F54
Copy CRC F8D41F54
Track not present in AccurateRip database
Copy OK
Track 7
Filename D:\zzz\07 - Vera Cruz.wav
Peak level 43.7 %
Extraction speed 2.9 X
Track quality 100.0 %
Test CRC 2B326099
Copy CRC 2B326099
Track not present in AccurateRip database
Copy OK
Track 8
Filename D:\zzz\08 - Tortoise Efficiency.wav
Peak level 100.0 %
Extraction speed 2.7 X
Track quality 100.0 %
Test CRC 626A04AA
Copy CRC 626A04AA
Track not present in AccurateRip database
Copy OK
None of the tracks are present in the AccurateRip database
No errors occurred
End of status report
==== Log checksum FFE8C32B281F8D69A340E60CF80EB8EC0B13BF9BFD64E453B55227F1F5674A80 ====
 
Содержание индексной карты (.CUE)
REM GENRE Jazz
REM DATE 2010
REM DISCID 4C0A5C08
REM COMMENT "ExactAudioCopy v1.0b3"
PERFORMER "Michael Waldrop"
TITLE "Inner Truth"
FILE "01 - Munich Musings.wav" WAVE
TRACK 01 AUDIO
TITLE "Munich Musings"
PERFORMER "Michael Waldrop"
INDEX 01 00:00:00
FILE "02 - Bitter End.wav" WAVE
TRACK 02 AUDIO
TITLE "Bitter End"
PERFORMER "Michael Waldrop"
INDEX 01 00:00:00
FILE "03 - 92 Degrees.wav" WAVE
TRACK 03 AUDIO
TITLE "92 Degrees"
PERFORMER "Michael Waldrop"
INDEX 01 00:00:00
FILE "04 - Inner Truth.wav" WAVE
TRACK 04 AUDIO
TITLE "Inner Truth"
PERFORMER "Michael Waldrop"
INDEX 01 00:00:00
FILE "05 - Bloody Oil.wav" WAVE
TRACK 05 AUDIO
TITLE "Bloody Oil"
PERFORMER "Michael Waldrop"
INDEX 01 00:00:00
FILE "06 - Languid.wav" WAVE
TRACK 06 AUDIO
TITLE "Languid"
PERFORMER "Michael Waldrop"
INDEX 01 00:00:00
FILE "07 - Vera Cruz.wav" WAVE
TRACK 07 AUDIO
TITLE "Vera Cruz"
PERFORMER "Michael Waldrop"
INDEX 01 00:00:00
FILE "08 - Tortoise Efficiency.wav" WAVE
TRACK 08 AUDIO
TITLE "Tortoise Efficiency"
PERFORMER "Michael Waldrop"
INDEX 01 00:00:00
 
Лог проверки качества
d:\>d:\aucdtect -d/-m0 d:\zzz\*.wav
auCDtect: CD records authenticity detector, version 0.8.2
Copyright (c) 2004 Oleg Berngardt. All rights reserved.
Copyright (c) 2004 Alexander Djourik. All rights reserved.
------------------------------------------------------------
Processing file: [01. Munich Musings.wav]
------------------------------------------------------------
This track looks like CDDA with probability 100%
------------------------------------------------------------
Processing file: [02. Bitter End.wav]
------------------------------------------------------------
This track looks like CDDA with probability 100%
------------------------------------------------------------
Processing file: [03. 92 Degrees.wav]
------------------------------------------------------------
This track looks like CDDA with probability 100%
------------------------------------------------------------
Processing file: [04. Inner Truth.wav]
------------------------------------------------------------
This track looks like CDDA with probability 92%
------------------------------------------------------------
Processing file: [05. Bloody Oil.wav]
------------------------------------------------------------
This track looks like CDDA with probability 100%
------------------------------------------------------------
Processing file: [06. Languid.wav]
------------------------------------------------------------
This track looks like CDDA with probability 42%
------------------------------------------------------------
Processing file: [07. Vera Cruz.wav]
------------------------------------------------------------
This track looks like CDDA with probability 100%
------------------------------------------------------------
Processing file: [08. Tortoise Efficiency.wav]
------------------------------------------------------------
This track looks like CDDA with probability 100%
------------------------------------------------------------
Final Conclusion:
------------------------------------------------------------
These tracks looks like CDDA with probability 100%
 
Состав
Michael Waldrop: marimba, vibraphone, drums (2,3,8)
Brad Dutz: percussion all tracks, vibraphone (3), hybrid drums (1,4,6,8)
Joel Hamilton: acoustic bass
Wayne Peet: acoustic piano (1,4,6)
Buddy Mohmed: acoustic bass (7)
Composed by Waldrop, except 3,8 (Dutz) and 7 (Milton Nascimento)
По всем вопросам пишите личное сообщение пользователю M0p94ok.
17:26
137
Нет комментариев. Ваш будет первым!