Поиск

(Avant-Garde Jazz, Free Improvisation) Brad Dutz, T.J. Troy, Chris Wabich - 10 Passes - 2009, FLAC (tracks+.cue), lossless

(Avant-Garde Jazz, Free Improvisation) Brad Dutz, T.J. Troy, Chris Wabich - 10 Passes - 2009, FLAC (tracks+.cue), lossless
Треклист:
Brad Dutz, T.J. Troy, Chris Wabich / 10 Passes
Жанр: Avant-Garde Jazz, Free Improvisation
Страна-производитель диска: US
Год издания: 2009
Издатель (лейбл): T.J. Troy self-released CD-R
Номер по каталогу: -
Страна: US
Аудиокодек: FLAC (*.flac)
Тип рипа: tracks+.cue
Битрейт аудио: lossless
Продолжительность: 56:50
Источник (релизер): свой фирменный диск
Наличие сканов в содержимом раздачи:
Треклист:
1 Calibrate All Gauges 4:39
2 Obese Pachyderm Parade 1:35
3 Scrabble On The Grass 4:05
4 Visit Gelderland 2:14
5 Air Raid Over Noon 1:23
6 Weapons Do Not Effect Beetles 3:32
7 Mac The Comb 4:53
8 An Afternoon Nap 2:56
9 Not Too Confused 4:00
10 Snappy Jingle 2:28
11 Acid Rain Reflux 2:26
12 Gewndolyn Reinvents Jellification 2:06
13 Spinner Pot Squeak Bell 7:52
14 Rosewood Can Harbor A Colony 3:57
15 Trio For Toms 3:00
16 10 Passes 5:44
 
Лог создания рипа
Exact Audio Copy V1.0 beta 3 from 29. August 2011
EAC extraction logfile from 23. August 2013, 18:43
Brad Dutz, T.J. Troy, Chris Wabich / 10 Passes
Used drive : PIONEER DVD-RW DVR-115D Adapter: 0 ID: 0
Read mode : Secure
Utilize accurate stream : Yes
Defeat audio cache : Yes
Make use of C2 pointers : No
Read offset correction : 48
Overread into Lead-In and Lead-Out : No
Fill up missing offset samples with silence : Yes
Delete leading and trailing silent blocks : No
Null samples used in CRC calculations : Yes
Used interface : Installed external ASPI interface
Gap handling : Appended to previous track
Used output format : User Defined Encoder
Selected bitrate : 896 kBit/s
Quality : High
Add ID3 tag : No
Command line compressor : C:\Program Files\Exact Audio Copy\FLAC\FLAC.EXE
Additional command line options : -6 -V -T "ARTIST=%artist%" -T "TITLE=%title%" -T "ALBUM=%albumtitle%" -T "DATE=%year%" -T "TRACKNUMBER=%tracknr%" -T "GENRE=%genre%" -T "COMMENT=%comment%" -T "BAND=%albuminterpret%" -T "COMPOSER=%composer%" %haslyrics%--tag-from-file=LYRICS="%lyricsfile%"%haslyrics% -T "DISCNUMBER=%cdnumber%" -T "TOTALDISCS=%totalcds%" -T "TOTALTRACKS=%numtracks%" %hascover%--picture="%coverfile%"%hascover% %source% -o %dest%
TOC of the extracted CD
Track | Start | Length | Start sector | End sector
---------------------------------------------------------
1 | 0:00.00 | 4:39.37 | 0 | 20961
2 | 4:39.37 | 1:34.63 | 20962 | 28074
3 | 6:14.25 | 4:04.67 | 28075 | 46441
4 | 10:19.17 | 2:14.01 | 46442 | 56492
5 | 12:33.18 | 1:22.51 | 56493 | 62693
6 | 13:55.69 | 3:31.60 | 62694 | 78578
7 | 17:27.54 | 4:53.33 | 78579 | 100586
8 | 22:21.12 | 2:55.61 | 100587 | 113772
9 | 25:16.73 | 3:59.59 | 113773 | 131756
10 | 29:16.57 | 2:28.05 | 131757 | 142861
11 | 31:44.62 | 2:25.73 | 142862 | 153809
12 | 34:10.60 | 2:06.37 | 153810 | 163296
13 | 36:17.22 | 7:52.25 | 163297 | 198721
14 | 44:09.47 | 3:57.13 | 198722 | 216509
15 | 48:06.60 | 2:59.71 | 216510 | 230005
16 | 51:06.56 | 5:43.57 | 230006 | 255787
Track 1
Filename D:\zzz\01 - Calibrate All Gauges.wav
Pre-gap length 0:00:02.00
Peak level 96.6 %
Extraction speed 4.2 X
Track quality 99.9 %
Test CRC 8D790EFA
Copy CRC 8D790EFA
Track not present in AccurateRip database
Copy OK
Track 2
Filename D:\zzz\02 - Obese Pachyderm Parade.wav
Peak level 96.6 %
Extraction speed 4.1 X
Track quality 100.0 %
Test CRC 99DE827B
Copy CRC 99DE827B
Track not present in AccurateRip database
Copy OK
Track 3
Filename D:\zzz\03 - Scrabble On The Grass.wav
Peak level 100.0 %
Extraction speed 5.2 X
Track quality 100.0 %
Test CRC 2115E103
Copy CRC 2115E103
Track not present in AccurateRip database
Copy OK
Track 4
Filename D:\zzz\04 - Visit Gelderland.wav
Peak level 96.6 %
Extraction speed 4.9 X
Track quality 100.0 %
Test CRC 44F33E61
Copy CRC 44F33E61
Track not present in AccurateRip database
Copy OK
Track 5
Filename D:\zzz\05 - Air Raid Over Noon.wav
Peak level 96.6 %
Extraction speed 3.4 X
Track quality 99.8 %
Test CRC EC77389E
Copy CRC EC77389E
Track not present in AccurateRip database
Copy OK
Track 6
Filename D:\zzz\06 - Weapons Do Not Effect Beetles.wav
Peak level 96.6 %
Extraction speed 5.0 X
Track quality 99.9 %
Test CRC 26FB1BE7
Copy CRC 26FB1BE7
Track not present in AccurateRip database
Copy OK
Track 7
Filename D:\zzz\07 - Mac The Comb.wav
Peak level 96.6 %
Extraction speed 5.6 X
Track quality 99.9 %
Test CRC 4B09A8C8
Copy CRC 4B09A8C8
Track not present in AccurateRip database
Copy OK
Track 8
Filename D:\zzz\08 - An Afternoon Nap.wav
Peak level 96.6 %
Extraction speed 6.0 X
Track quality 100.0 %
Test CRC 46480A11
Copy CRC 46480A11
Track not present in AccurateRip database
Copy OK
Track 9
Filename D:\zzz\09 - Not Too Confused.wav
Peak level 96.6 %
Extraction speed 6.5 X
Track quality 100.0 %
Test CRC E8A5E062
Copy CRC E8A5E062
Track not present in AccurateRip database
Copy OK
Track 10
Filename D:\zzz\10 - Snappy Jingle.wav
Peak level 96.6 %
Extraction speed 5.2 X
Track quality 99.9 %
Test CRC BCF09A2E
Copy CRC BCF09A2E
Track not present in AccurateRip database
Copy OK
Track 11
Filename D:\zzz\11 - Acid Rain Reflux.wav
Peak level 88.8 %
Extraction speed 6.3 X
Track quality 100.0 %
Test CRC 4E9C498A
Copy CRC 4E9C498A
Track not present in AccurateRip database
Copy OK
Track 12
Filename D:\zzz\12 - Gwendolyn Reinvents Jellification.wav
Peak level 96.6 %
Extraction speed 5.1 X
Track quality 99.9 %
Test CRC 79558BF2
Copy CRC 79558BF2
Track not present in AccurateRip database
Copy OK
Track 13
Filename D:\zzz\13 - Spinner Pot Squeak Bell.wav
Peak level 96.6 %
Extraction speed 7.7 X
Track quality 100.0 %
Test CRC E1D8C5A5
Copy CRC E1D8C5A5
Track not present in AccurateRip database
Copy OK
Track 14
Filename D:\zzz\14 - Rosewood Can Harbor A Colony.wav
Peak level 96.6 %
Extraction speed 7.4 X
Track quality 100.0 %
Test CRC 8A50D61B
Copy CRC 8A50D61B
Track not present in AccurateRip database
Copy OK
Track 15
Filename D:\zzz\15 - Trio For Toms.wav
Peak level 96.6 %
Extraction speed 6.2 X
Track quality 99.9 %
Test CRC C5AC82AB
Copy CRC C5AC82AB
Track not present in AccurateRip database
Copy OK
Track 16
Filename D:\zzz\16 - 10 Passes.wav
Peak level 96.6 %
Extraction speed 8.2 X
Track quality 100.0 %
Test CRC 31FF5C5D
Copy CRC 31FF5C5D
Track not present in AccurateRip database
Copy OK
None of the tracks are present in the AccurateRip database
No errors occurred
End of status report
==== Log checksum 91A9806CF4555F39BF3050A4DCA2FD26AB9133F7EC255F951119519063B80951 ====
 
Содержание индексной карты (.CUE)
REM GENRE Avant-Garde
REM DATE 2009
REM DISCID EB0D5210
REM COMMENT "ExactAudioCopy v1.0b3"
PERFORMER "Brad Dutz, T.J. Troy, Chris Wabich"
TITLE "10 Passes"
FILE "01 - Calibrate All Gauges.wav" WAVE
TRACK 01 AUDIO
TITLE "Calibrate All Gauges"
PERFORMER "Brad Dutz, T.J. Troy, Chris Wabich"
INDEX 01 00:00:00
FILE "02 - Obese Pachyderm Parade.wav" WAVE
TRACK 02 AUDIO
TITLE "Obese Pachyderm Parade"
PERFORMER "Brad Dutz, T.J. Troy, Chris Wabich"
INDEX 01 00:00:00
FILE "03 - Scrabble On The Grass.wav" WAVE
TRACK 03 AUDIO
TITLE "Scrabble On The Grass"
PERFORMER "Brad Dutz, T.J. Troy, Chris Wabich"
INDEX 01 00:00:00
FILE "04 - Visit Gelderland.wav" WAVE
TRACK 04 AUDIO
TITLE "Visit Gelderland"
PERFORMER "Brad Dutz, T.J. Troy, Chris Wabich"
INDEX 01 00:00:00
FILE "05 - Air Raid Over Noon.wav" WAVE
TRACK 05 AUDIO
TITLE "Air Raid Over Noon"
PERFORMER "Brad Dutz, T.J. Troy, Chris Wabich"
INDEX 01 00:00:00
FILE "06 - Weapons Do Not Effect Beetles.wav" WAVE
TRACK 06 AUDIO
TITLE "Weapons Do Not Effect Beetles"
PERFORMER "Brad Dutz, T.J. Troy, Chris Wabich"
INDEX 01 00:00:00
FILE "07 - Mac The Comb.wav" WAVE
TRACK 07 AUDIO
TITLE "Mac The Comb"
PERFORMER "Brad Dutz, T.J. Troy, Chris Wabich"
INDEX 01 00:00:00
FILE "08 - An Afternoon Nap.wav" WAVE
TRACK 08 AUDIO
TITLE "An Afternoon Nap"
PERFORMER "Brad Dutz, T.J. Troy, Chris Wabich"
INDEX 01 00:00:00
FILE "09 - Not Too Confused.wav" WAVE
TRACK 09 AUDIO
TITLE "Not Too Confused"
PERFORMER "Brad Dutz, T.J. Troy, Chris Wabich"
INDEX 01 00:00:00
FILE "10 - Snappy Jingle.wav" WAVE
TRACK 10 AUDIO
TITLE "Snappy Jingle"
PERFORMER "Brad Dutz, T.J. Troy, Chris Wabich"
INDEX 01 00:00:00
FILE "11 - Acid Rain Reflux.wav" WAVE
TRACK 11 AUDIO
TITLE "Acid Rain Reflux"
PERFORMER "Brad Dutz, T.J. Troy, Chris Wabich"
INDEX 01 00:00:00
FILE "12 - Gwendolyn Reinvents Jellification.wav" WAVE
TRACK 12 AUDIO
TITLE "Gwendolyn Reinvents Jellification"
PERFORMER "Brad Dutz, T.J. Troy, Chris Wabich"
INDEX 01 00:00:00
FILE "13 - Spinner Pot Squeak Bell.wav" WAVE
TRACK 13 AUDIO
TITLE "Spinner Pot Squeak Bell"
PERFORMER "Brad Dutz, T.J. Troy, Chris Wabich"
INDEX 01 00:00:00
FILE "14 - Rosewood Can Harbor A Colony.wav" WAVE
TRACK 14 AUDIO
TITLE "Rosewood Can Harbor A Colony"
PERFORMER "Brad Dutz, T.J. Troy, Chris Wabich"
INDEX 01 00:00:00
FILE "15 - Trio For Toms.wav" WAVE
TRACK 15 AUDIO
TITLE "Trio For Toms"
PERFORMER "Brad Dutz, T.J. Troy, Chris Wabich"
INDEX 01 00:00:00
FILE "16 - 10 Passes.wav" WAVE
TRACK 16 AUDIO
TITLE "10 Passes"
PERFORMER "Brad Dutz, T.J. Troy, Chris Wabich"
INDEX 01 00:00:00
 
Лог проверки качества
d:\>d:\aucdtect -d/-m0 d:\zzz\*.wav
auCDtect: CD records authenticity detector, version 0.8.2
Copyright (c) 2004 Oleg Berngardt. All rights reserved.
Copyright (c) 2004 Alexander Djourik. All rights reserved.
------------------------------------------------------------
Processing file: [01. Calibrate All Gauges.wav]
------------------------------------------------------------
This track looks like CDDA with probability 100%
------------------------------------------------------------
Processing file: [02. Obese Pachyderm Parade.wav]
------------------------------------------------------------
This track looks like CDDA with probability 100%
------------------------------------------------------------
Processing file: [03. Scrabble On The Grass.wav]
------------------------------------------------------------
This track looks like CDDA with probability 100%
------------------------------------------------------------
Processing file: [04. Visit Gelderland.wav]
------------------------------------------------------------
This track looks like CDDA with probability 100%
------------------------------------------------------------
Processing file: [05. Air Raid Over Noon.wav]
------------------------------------------------------------
This track looks like CDDA with probability 100%
------------------------------------------------------------
Processing file: [06. Weapons Do Not Effect Beetles.wav]
------------------------------------------------------------
This track looks like CDDA with probability 100%
------------------------------------------------------------
Processing file: [07. Mac The Comb.wav]
------------------------------------------------------------
This track looks like CDDA with probability 100%
------------------------------------------------------------
Processing file: [08. An Afternoon Nap.wav]
------------------------------------------------------------
This track looks like CDDA with probability 100%
------------------------------------------------------------
Processing file: [09. Not Too Confused.wav]
------------------------------------------------------------
This track looks like CDDA with probability 100%
------------------------------------------------------------
Processing file: [10. Snappy Jingle.wav]
------------------------------------------------------------
This track looks like CDDA with probability 100%
------------------------------------------------------------
Processing file: [11. Acid Rain Reflux.wav]
------------------------------------------------------------
This track looks like CDDA with probability 99%
------------------------------------------------------------
Processing file: [12. Gwendolyn Reinvents Jellification.wav]
------------------------------------------------------------
This track looks like CDDA with probability 94%
------------------------------------------------------------
Processing file: [13. Spinner Pot Squeak Bell.wav]
------------------------------------------------------------
This track looks like CDDA with probability 100%
------------------------------------------------------------
Processing file: [14. Rosewood Can Harbor A Colony.wav]
------------------------------------------------------------
This track looks like CDDA with probability 100%
------------------------------------------------------------
Processing file: [15. Trio For Toms.wav]
------------------------------------------------------------
This track looks like CDDA with probability 100%
------------------------------------------------------------
Processing file: [16. 10 Passes.wav]
------------------------------------------------------------
This track looks like CDDA with probability 100%
------------------------------------------------------------
Final Conclusion:
------------------------------------------------------------
These tracks looks like CDDA with probability 100%
Доп. информация:
 
Album Info
Composed by (Dutz/Troy/Wabich), except 7,10,13 (Dutz), 3,15,16 (Troy), 8,11 (Wabich)
Recorded & mixed by T.J. Troy
Mastered by Wayne Peet at Newzone Studio
Special thanks: Yamaha, Vic Firth, Roland, Remo, Paiste
Chris thanks Cadeson drums, Aquarian drum heads, Turkish cymbals
 
Состав
Brad Dutz, T.J. Troy, Chris Wabich: all instruments (mostly percussion)
По всем вопросам пишите личное сообщение пользователю M0p94ok.
17:27
157
Нет комментариев. Ваш будет первым!