Вы используете незарегистрированную версию компонента "Вкладки"!

Поиск

(Avant-Garde Jazz/Free Jazz) Power Of The Horns - Alaman - 2013, FLAC (tracks+.cue), lossless

(Avant-Garde Jazz/Free Jazz) Power Of The Horns - Alaman - 2013, FLAC (tracks+.cue), lossless
Треклист:
Power Of The Horns - Alaman
Жанр: Avant-Garde Jazz/Free Jazz
Страна-производитель диска: Poland
Год издания: 2013
Издатель (лейбл): For Tune
Номер по каталогу: 001
Страна: Poland
Аудиокодек: FLAC (*.flac)
Тип рипа: tracks+.cue
Битрейт аудио: lossless
Продолжительность: 01:14:34
Источник (релизер): getalbums.ru, релизер - shummuhs
Наличие сканов в содержимом раздачи: да
Треклист:
01. ALAMAN (27:21)
02. TROID (13:13)
03. PSALM FOR WILLIAM PARKER (34:00)
 
Лог создания рипа
X Lossless Decoder version 20120120 (139.0)
XLD extraction logfile from 2013-07-22 12:51:38 +0200
Power of the Horns / Alaman
Used drive : HL-DT-ST DVD-RW GH41N (revision PQ04)
Ripper mode : CDParanoia III 10.2
Disable audio cache : OK for the drive with a cache less than 2750KiB
Make use of C2 pointers : NO
Read offset correction : 667
Max retry count : 100
Gap status : Analyzed, Appended
TOC of the extracted CD
Track | Start | Length | Start sector | End sector
---------------------------------------------------------
1 | 00:00:00 | 27:21:00 | 0 | 123074
2 | 27:21:00 | 13:13:00 | 123075 | 182549
3 | 40:34:00 | 34:00:00 | 182550 | 335549
AccurateRip Summary
Disc not found in AccurateRip DB.
All Tracks
Statistics
Read error : 0
Skipped (treated as error) : 0
Edge jitter error (maybe fixed) : 0
Atom jitter error (maybe fixed) : 0
Drift error (maybe fixed) : 0
Dropped bytes error (maybe fixed) : 0
Duplicated bytes error (maybe fixed) : 0
Track 01
Filename : /Users/user/Desktop/Power of the Horns - Alaman [2013]/01. Ataman.flac
Pre-gap length : 00:02:00
CRC32 hash : D511CB19
CRC32 hash (skip zero) : 3BFA65B9
AccurateRip signature : 152A54EF
->Track not present in AccurateRip database.
Statistics
Read error : 0
Skipped (treated as error) : 0
Edge jitter error (maybe fixed) : 0
Atom jitter error (maybe fixed) : 0
Drift error (maybe fixed) : 0
Dropped bytes error (maybe fixed) : 0
Duplicated bytes error (maybe fixed) : 0
Track 02
Filename : /Users/user/Desktop/Power of the Horns - Alaman [2013]/02. Troid.flac
CRC32 hash : D921B1C6
CRC32 hash (skip zero) : 1C3D2223
AccurateRip signature : 59832B71
->Track not present in AccurateRip database.
Statistics
Read error : 0
Skipped (treated as error) : 0
Edge jitter error (maybe fixed) : 0
Atom jitter error (maybe fixed) : 0
Drift error (maybe fixed) : 0
Dropped bytes error (maybe fixed) : 0
Duplicated bytes error (maybe fixed) : 0
Track 03
Filename : /Users/user/Desktop/Power of the Horns - Alaman [2013]/03. Psalm for William Parker.flac
CRC32 hash : F8336CAC
CRC32 hash (skip zero) : 0EBC6534
AccurateRip signature : 3FD90308
->Track not present in AccurateRip database.
Statistics
Read error : 0
Skipped (treated as error) : 0
Edge jitter error (maybe fixed) : 0
Atom jitter error (maybe fixed) : 0
Drift error (maybe fixed) : 0
Dropped bytes error (maybe fixed) : 0
Duplicated bytes error (maybe fixed) : 0
No errors occurred
End of status report
CUE Sheet отсутствует в оригинальном источнике
 
Состав
Piotr Damasiewicz – conductor, trumpet, voice
Adam Pindur – soprano sax
Maciej Obara – alt sax
Marek Pospieszalski – tenor sax, bass clarinet, flute, growl
Paweł Niewiadomski – puzon
Jakub Mielcarek – double bass
Max Mucha – double bass
Gabriel Ferrandini – percussion
Wojciech Romanowski – percussion
Tomas Sanchez – percussion
Dominik Wania – piano
По всем вопросам пишите личное сообщение пользователю M0p94ok.
17:25
161
Нет комментариев. Ваш будет первым!