Вы используете незарегистрированную версию компонента "Вкладки"!

Поиск

(Avant-Garde, Sound Aspects) Gerry Hemingway Quintet (Ray Anderson, David Mott, Ernst Reijseger, Mark Helias) - Outerbridge Crossing - 1989 (1987), FLAC (tracks+.cue), lossless

(Avant-Garde, Sound Aspects) Gerry Hemingway Quintet (Ray Anderson, David Mott, Ernst Reijseger, Mark Helias) - Outerbridge Crossing - 1989 (1987), FLAC (tracks+.cue), lossless
Треклист:
Gerry Hemingway Quintet / Outerbridge Crossing
Жанр: Avant-Garde, Sound Aspects
Страна-производитель диска: Germany
Год издания: 1989 (1987)
Издатель (лейбл): Sound Aspects
Номер по каталогу: SAS CD 017
Аудиокодек: FLAC (*.flac)
Тип рипа: tracks+.cue
Битрейт аудио: lossless
Продолжительность: 46:23
Источник (релизер): Max Monteiro
Наличие сканов в содержимом раздачи: да
Треклист:
1. Outerbridge Crossing 10:15
2. Not Having 12:54
3. Endorphin 7:35
4. Threnody for Charles Mingus 8:19
5. Junctures 7:20
All compositions by Gerry Hemingway.
Recorded on September 19 and 20, 1985 at Presence Studio, New Haven, Connecticut.
Remastered for CD July 1989 at Tonstudio Bauer, Ludwigsburg, West Germany.
Ray Anderson – Trombone, Tuba
David Mott – Baritone Saxophone
Ernst Reijseger – Cello
Mark Helias – Bass, Electric Bass
Gerry Hemingway – Drums
 
Лог создания рипа
Exact Audio Copy V1.0 beta 3 from 29. August 2011
EAC extraction logfile from 24. August 2013, 14:46
Gerry Hemingway Quintet / Outerbridge Crossing
Used drive : SlimtypeeNAU508 5 Adapter: 1 ID: 0
Read mode : Secure
Utilize accurate stream : Yes
Defeat audio cache : Yes
Make use of C2 pointers : No
Read offset correction : 6
Overread into Lead-In and Lead-Out : No
Fill up missing offset samples with silence : Yes
Delete leading and trailing silent blocks : No
Null samples used in CRC calculations : Yes
Used interface : Native Win32 interface for Win NT & 2000
Gap handling : Appended to previous track
Used output format : User Defined Encoder
Selected bitrate : 768 kBit/s
Quality : High
Add ID3 tag : No
Command line compressor : C:\Program Files (x86)\Exact Audio Copy\Flac\flac.exe
Additional command line options : -8 -V -T "ARTIST=%artist%" -T "TITLE=%title%" -T "ALBUM=%albumtitle%" -T "DATE=%year%" -T "TRACKNUMBER=%tracknr%" -T "GENRE=%genre%" -T "PERFORMER=%albuminterpret%" -T "COMPOSER=%composer%" %haslyrics%--tag-from-file=LYRICS="%lyricsfile%"%haslyrics% -T "ALBUMARTIST=%albumartist%" -T "DISCNUMBER=%cdnumber%" -T "TOTALDISCS=%totalcds%" -T "TOTALTRACKS=%numtracks%" -T "COMMENT=%comment%" %source% -o %dest%
TOC of the extracted CD
Track | Start | Length | Start sector | End sector
---------------------------------------------------------
1 | 0:00.32 | 10:15.08 | 32 | 46164
2 | 10:15.40 | 12:54.02 | 46165 | 104216
3 | 23:09.42 | 7:35.35 | 104217 | 138376
4 | 30:45.02 | 8:18.40 | 138377 | 175766
5 | 39:03.42 | 7:19.45 | 175767 | 208736
Track 1
Filename C:\EAC rips\01 - Outerbridge Crossing.wav
Pre-gap length 0:00:02.32
Peak level 76.5 %
Extraction speed 1.2 X
Track quality 100.0 %
Test CRC E4863BBA
Copy CRC E4863BBA
Accurately ripped (confidence 2) [6A5F584D] (AR v2)
Copy OK
Track 2
Filename C:\EAC rips\02 - Not Having.wav
Pre-gap length 0:00:04.63
Peak level 62.7 %
Extraction speed 1.6 X
Track quality 100.0 %
Test CRC 3265A773
Copy CRC 3265A773
Accurately ripped (confidence 2) [8327E3B6] (AR v2)
Copy OK
Track 3
Filename C:\EAC rips\03 - Endorphin.wav
Pre-gap length 0:00:04.10
Peak level 75.5 %
Extraction speed 1.6 X
Track quality 99.9 %
Test CRC 173A45EB
Copy CRC 173A45EB
Accurately ripped (confidence 2) [60F24975] (AR v2)
Copy OK
Track 4
Filename C:\EAC rips\04 - Threnody for Charles Mingus.wav
Pre-gap length 0:00:04.22
Peak level 47.7 %
Extraction speed 1.9 X
Track quality 100.0 %
Test CRC 18C8FAD3
Copy CRC 18C8FAD3
Accurately ripped (confidence 2) [0E465BCB] (AR v2)
Copy OK
Track 5
Filename C:\EAC rips\05 - Junctures.wav
Pre-gap length 0:00:03.52
Peak level 89.3 %
Extraction speed 2.0 X
Track quality 100.0 %
Test CRC 1E227437
Copy CRC 1E227437
Accurately ripped (confidence 2) [2CF19034] (AR v2)
Copy OK
All tracks accurately ripped
No errors occurred
End of status report
---- CUETools DB Plugin V2.1.4
[CTDB TOCID: G6o_T3Aw8BxpSAIbKJI56ucrI6w-] disk not present in database
Submit result: G6o_T3Aw8BxpSAIbKJI56ucrI6w- has been uploaded
==== Log checksum ED06BE6E9108AB7C1506ECF9BF0D0AA41054379207486E048770557219DDF66D ====
 
Содержание индексной карты (.CUE)
REM GENRE Jazz
REM DATE 1987
REM DISCID 400ADF05
REM COMMENT "ExactAudioCopy v1.0b3"
PERFORMER "Gerry Hemingway Quintet"
TITLE "Outerbridge Crossing"
FILE "01 - Outerbridge Crossing.wav" WAVE
TRACK 01 AUDIO
TITLE "Outerbridge Crossing"
PERFORMER "Gerry Hemingway Quintet"
PREGAP 00:00:32
INDEX 01 00:00:00
TRACK 02 AUDIO
TITLE "Not Having"
PERFORMER "Gerry Hemingway Quintet"
INDEX 00 10:10:20
FILE "02 - Not Having.wav" WAVE
INDEX 01 00:00:00
TRACK 03 AUDIO
TITLE "Endorphin"
PERFORMER "Gerry Hemingway Quintet"
INDEX 00 12:49:67
FILE "03 - Endorphin.wav" WAVE
INDEX 01 00:00:00
TRACK 04 AUDIO
TITLE "Threnody for Charles Mingus"
PERFORMER "Gerry Hemingway Quintet"
INDEX 00 07:31:13
FILE "04 - Threnody for Charles Mingus.wav" WAVE
INDEX 01 00:00:00
TRACK 05 AUDIO
TITLE "Junctures"
PERFORMER "Gerry Hemingway Quintet"
INDEX 00 08:14:63
FILE "05 - Junctures.wav" WAVE
INDEX 01 00:00:00
По всем вопросам пишите личное сообщение пользователю M0p94ok.
17:25
296
Нет комментариев. Ваш будет первым!