Вы используете незарегистрированную версию компонента "Вкладки"!

Поиск

(Free Jazz) Ivo Perelman, Matthew Shipp, Michael Bisio - The Gift - 2012, FLAC (image+.cue), lossless

(Free Jazz) Ivo Perelman, Matthew Shipp, Michael Bisio - The Gift - 2012, FLAC (image+.cue), lossless
Треклист:
Ivo Perelman, Matthew Shipp, Michael Bisio / The Gift
Жанр: Free Jazz
Страна-производитель диска: UK
Год издания: 2012
Издатель (лейбл): Leo Records
Номер по каталогу: CD LR 657
Аудиокодек: FLAC (*.flac)
Тип рипа: image+.cue
Битрейт аудио: lossless
Продолжительность: 61:14
Источник (релизер): cd
Наличие сканов в содержимом раздачи: нет
Треклист:
1 Too Good To Be True 6:13
2 The Gift 3:35
3 The Gratuitous Act 8:09
4 Refuge 7:46
5 What Is Anguish? 5:04
6 Submission To The Process 3:10
7 A Ride On A Camel 4:43
8 A Flower Bewitched And Too Bright By Far 13:06
9 Without Any Warning 5:03
10 Enlistment 4:24
 
Лог создания рипа
Exact Audio Copy V1.0 beta 2 from 29. April 2011
EAC extraction logfile from 17. August 2013, 10:58
Ivo Perelman, Matthew Shipp, Michael Bisio / The Gift
Used drive : Optiarc DVD RW AD-7170A Adapter: 0 ID: 0
Read mode : Secure
Utilize accurate stream : Yes
Defeat audio cache : Yes
Make use of C2 pointers : No
Read offset correction : 48
Overread into Lead-In and Lead-Out : No
Fill up missing offset samples with silence : Yes
Delete leading and trailing silent blocks : No
Null samples used in CRC calculations : Yes
Used interface : Native Win32 interface for Win NT & 2000
Used output format : User Defined Encoder
Selected bitrate : 320 kBit/s
Quality : High
Add ID3 tag : No
Command line compressor : C:\Program Files\Exact Audio Copy\Flac\flac.exe
Additional command line options : -V -8 -T "Date=%year%" -T "Genre=%genre%" %source%
TOC of the extracted CD
Track | Start | Length | Start sector | End sector
---------------------------------------------------------
1 | 0:00.00 | 6:12.70 | 0 | 27969
2 | 6:12.70 | 3:35.12 | 27970 | 44106
3 | 9:48.07 | 8:09.30 | 44107 | 80811
4 | 17:57.37 | 7:46.27 | 80812 | 115788
5 | 25:43.64 | 5:04.23 | 115789 | 138611
6 | 30:48.12 | 3:10.35 | 138612 | 152896
7 | 33:58.47 | 4:42.53 | 152897 | 174099
8 | 38:41.25 | 13:06.30 | 174100 | 233079
9 | 51:47.55 | 5:02.61 | 233080 | 255790
10 | 56:50.41 | 4:23.73 | 255791 | 275588
Range status and errors
Selected range
Filename K:\ЕАС\Ivo Perelman, Matthew Shipp, Michael Bisio - The Gift.wav
Peak level 100.0 %
Extraction speed 2.1 X
Range quality 100.0 %
Test CRC BD79C524
Copy CRC BD79C524
Copy OK
No errors occurred
AccurateRip summary
Track 1 not present in database
Track 2 not present in database
Track 3 not present in database
Track 4 not present in database
Track 5 not present in database
Track 6 not present in database
Track 7 not present in database
Track 8 not present in database
Track 9 not present in database
Track 10 not present in database
None of the tracks are present in the AccurateRip database
End of status report
==== Log checksum 11C76C1ACEE1E7F5076DE5957622AAA3D70FC2CFB9AC79015EA2495A4255DA40 ====
 
Содержание индексной карты (.CUE)
REM GENRE Jazz
REM DATE 2012
REM DISCID 730E5A0A
REM COMMENT "ExactAudioCopy v1.0b2"
PERFORMER " Ivo Perelman, Matthew Shipp, Michael Bisio"
TITLE "The Gift"
FILE "Ivo Perelman, Matthew Shipp, Michael Bisio - The Gift.flac" WAVE
TRACK 01 AUDIO
TITLE "Too Good To Be True"
PERFORMER " Ivo Perelman, Matthew Shipp, Michael Bisio"
ISRC 000000000000
FLAGS DCP
INDEX 01 00:00:00
TRACK 02 AUDIO
TITLE "The Gift"
PERFORMER " Ivo Perelman, Matthew Shipp, Michael Bisio"
ISRC 000000000000
FLAGS DCP
INDEX 00 06:10:70
INDEX 01 06:12:70
TRACK 03 AUDIO
TITLE "The Gratuitous Act"
PERFORMER " Ivo Perelman, Matthew Shipp, Michael Bisio"
ISRC 000000000000
FLAGS DCP
INDEX 00 09:46:07
INDEX 01 09:48:07
TRACK 04 AUDIO
TITLE "Refuge"
PERFORMER " Ivo Perelman, Matthew Shipp, Michael Bisio"
ISRC 000000000000
FLAGS DCP
INDEX 00 17:55:37
INDEX 01 17:57:37
TRACK 05 AUDIO
TITLE "What Is Anguish?"
PERFORMER " Ivo Perelman, Matthew Shipp, Michael Bisio"
ISRC 000000000000
FLAGS DCP
INDEX 00 25:41:64
INDEX 01 25:43:64
TRACK 06 AUDIO
TITLE "Submission To The Process"
PERFORMER " Ivo Perelman, Matthew Shipp, Michael Bisio"
ISRC 000000000000
FLAGS DCP
INDEX 00 30:46:12
INDEX 01 30:48:12
TRACK 07 AUDIO
TITLE "A Ride On A Camel"
PERFORMER " Ivo Perelman, Matthew Shipp, Michael Bisio"
ISRC 000000000000
FLAGS DCP
INDEX 00 33:55:47
INDEX 01 33:58:47
TRACK 08 AUDIO
TITLE "A Flower Bewitched And Too Bright By Far"
PERFORMER " Ivo Perelman, Matthew Shipp, Michael Bisio"
ISRC 000000000000
FLAGS DCP
INDEX 00 38:39:25
INDEX 01 38:41:25
TRACK 09 AUDIO
TITLE "Without Any Warning"
PERFORMER " Ivo Perelman, Matthew Shipp, Michael Bisio"
ISRC 000000000000
FLAGS DCP
INDEX 00 51:45:20
INDEX 01 51:47:55
TRACK 10 AUDIO
TITLE "Enlistment"
PERFORMER " Ivo Perelman, Matthew Shipp, Michael Bisio"
ISRC 000000000000
FLAGS DCP
INDEX 00 56:48:06
INDEX 01 56:50:41
Доп. информация: Recorded, mixed and mastered at Parkwest studios, Brooklyn, NY, July 2012
 
Состав
Bass – Michael Bisio
Piano – Matthew Shipp
Tenor Saxophone – Ivo Perelman
Any questions -> support@pro-jazz.com. По всем вопросам пишите -> support@pro-jazz.com
17:24
173
Нет комментариев. Ваш будет первым!