Вы используете незарегистрированную версию компонента "Вкладки"!

Поиск

(Free Jazz, Contemporary Jazz, Free Improvisation) Francesco Branciamore Perfect Quartet - Jumping - 2005, FLAC (image+.cue), lossless

(Free Jazz, Contemporary Jazz, Free Improvisation) Francesco Branciamore Perfect Quartet - Jumping - 2005, FLAC (image+.cue), lossless
Треклист:
Francesco Branciamore Perfect Quartet / Jumping
Жанр: Free Jazz, Contemporary Jazz, Free Improvisation
Страна-производитель диска: Italy
Год издания: 2005
Издатель (лейбл): Splasc(h) Records
Номер по каталогу: CDH940.2
Аудиокодек: FLAC (*.flac)
Тип рипа: image+.cue
Битрейт аудио: lossless
Продолжительность: 57:12
Источник (релизер): cd
Наличие сканов в содержимом раздачи: нет
Треклист:
1 File Phase For 6 Voices 11:12
2 Jumping 8:29
3 Ghorfas 9:09
4 Lament 7:29
5 Around World 4:33
6 Tarakaziz 4:15
7 Double Phase 11:49
 
Лог создания рипа
Exact Audio Copy V1.0 beta 2 from 29. April 2011
EAC extraction logfile from 18. October 2013, 9:56
Francesco Branciamore Perfect Quartet / Jumping
Used drive : Optiarc DVD RW AD-7170A Adapter: 0 ID: 0
Read mode : Secure
Utilize accurate stream : Yes
Defeat audio cache : Yes
Make use of C2 pointers : No
Read offset correction : 48
Overread into Lead-In and Lead-Out : No
Fill up missing offset samples with silence : Yes
Delete leading and trailing silent blocks : No
Null samples used in CRC calculations : Yes
Used interface : Native Win32 interface for Win NT & 2000
Used output format : User Defined Encoder
Selected bitrate : 320 kBit/s
Quality : High
Add ID3 tag : No
Command line compressor : C:\Program Files\Exact Audio Copy\Flac\flac.exe
Additional command line options : -V -8 -T "Date=%year%" -T "Genre=%genre%" %source%
TOC of the extracted CD
Track | Start | Length | Start sector | End sector
---------------------------------------------------------
1 | 0:00.00 | 11:14.60 | 0 | 50609
2 | 11:14.60 | 8:31.25 | 50610 | 88959
3 | 19:46.10 | 9:11.28 | 88960 | 130312
4 | 28:57.38 | 7:31.68 | 130313 | 164205
5 | 36:29.31 | 4:35.46 | 164206 | 184876
6 | 41:05.02 | 4:17.32 | 184877 | 204183
7 | 45:22.34 | 11:49.64 | 204184 | 257422
Range status and errors
Selected range
Filename K:\ЕАС\Francesco Branciamore Perfect Quartet - Jumping.wav
Peak level 100.0 %
Extraction speed 1.8 X
Range quality 99.9 %
Test CRC 4EB82875
Copy CRC 4EB82875
Copy OK
No errors occurred
AccurateRip summary
Track 1 not present in database
Track 2 not present in database
Track 3 not present in database
Track 4 not present in database
Track 5 not present in database
Track 6 not present in database
Track 7 not present in database
None of the tracks are present in the AccurateRip database
End of status report
==== Log checksum 748EFC48E2457A5DFB7F350A17946EE288F5E07413F7148E30F5A806BC3A6964 ====
 
Содержание индексной карты (.CUE)
REM GENRE Jazz
REM DATE 2005
REM DISCID 6A0D6807
REM COMMENT "ExactAudioCopy v1.0b2"
PERFORMER "Francesco Branciamore Perfect Quartet"
TITLE "Jumping"
FILE "Francesco Branciamore Perfect Quartet - Jumping.flac" WAVE
TRACK 01 AUDIO
TITLE "File Phase For 6 Voices"
PERFORMER "Francesco Branciamore Perfect Quartet"
ISRC 000000000000
INDEX 01 00:00:00
TRACK 02 AUDIO
TITLE "Jumping"
PERFORMER "Francesco Branciamore Perfect Quartet"
ISRC 000000000000
INDEX 00 11:12:60
INDEX 01 11:14:60
TRACK 03 AUDIO
TITLE "Ghorfas"
PERFORMER "Francesco Branciamore Perfect Quartet"
ISRC 000000000000
INDEX 00 19:44:10
INDEX 01 19:46:10
TRACK 04 AUDIO
TITLE "Lament"
PERFORMER "Francesco Branciamore Perfect Quartet"
ISRC 000000000000
INDEX 00 28:55:38
INDEX 01 28:57:38
TRACK 05 AUDIO
TITLE "Around World"
PERFORMER "Francesco Branciamore Perfect Quartet"
ISRC 000000000000
INDEX 00 36:27:31
INDEX 01 36:29:31
TRACK 06 AUDIO
TITLE "Tarakaziz"
PERFORMER "Francesco Branciamore Perfect Quartet"
ISRC 000000000000
INDEX 00 41:03:02
INDEX 01 41:05:02
TRACK 07 AUDIO
TITLE "Double Phase"
PERFORMER "Francesco Branciamore Perfect Quartet"
ISRC 000000000000
INDEX 00 45:20:34
INDEX 01 45:22:34
Доп. информация: Recorded in studio "Sala A", RAI, via Asiago, Roma, on 24-25 May 2004
 
Состав
Double Bass – Giuseppe Guarrella
Drums – Francesco Branciamore
Saxophone [Saxes], Clarinet – Gaetano Cristofaro
Trombone, Flugelhorn – Elio Amato
Any questions -> support@pro-jazz.com. По всем вопросам пишите -> support@pro-jazz.com
19:25
168
Нет комментариев. Ваш будет первым!