Вы используете незарегистрированную версию компонента "Вкладки"!

Поиск

(Free Jazz, Contemporary Jazz, Free Improvisation) Claudio Cojaniz Trio + Giancarlo Schiaffini - Alea - 1996, FLAC (image+.cue), lossless

(Free Jazz, Contemporary Jazz, Free Improvisation) Claudio Cojaniz Trio + Giancarlo Schiaffini - Alea - 1996, FLAC (image+.cue), lossless
Треклист:
Claudio Cojaniz Trio + Giancarlo Schiaffini / Alea
Жанр: Free Jazz, Contemporary Jazz, Free Improvisation
Страна-производитель диска: Italy
Год издания: 1996
Издатель (лейбл): Splasc(h) Records
Номер по каталогу: CD H 461.2
Аудиокодек: FLAC (*.flac)
Тип рипа: image+.cue
Битрейт аудио: lossless
Продолжительность: 54:53
Источник (релизер): cd
Наличие сканов в содержимом раздачи: нет
Треклист:
1 Alea I 3:43
2 Alea II 3:09
3 Alea III 2:43
4 Alea IV 2:18
5 Alea V 5:12
6 Alea VI (H2SO4) 6:09
7 Alea VII 2:59
8 Alea VIII 4:45
9 Alea IX 6:40
10 Alea X 3:18
11 Alea XI 6:46
12 Alea XII 4:08
13 Alea XIII 2:57
 
Лог создания рипа
Exact Audio Copy V1.0 beta 2 from 29. April 2011
EAC extraction logfile from 18. October 2013, 11:27
Claudio Cojaniz Trio + Giancarlo Schiaffini / Alea
Used drive : Optiarc DVD RW AD-7170A Adapter: 0 ID: 0
Read mode : Secure
Utilize accurate stream : Yes
Defeat audio cache : Yes
Make use of C2 pointers : No
Read offset correction : 48
Overread into Lead-In and Lead-Out : No
Fill up missing offset samples with silence : Yes
Delete leading and trailing silent blocks : No
Null samples used in CRC calculations : Yes
Used interface : Native Win32 interface for Win NT & 2000
Used output format : User Defined Encoder
Selected bitrate : 320 kBit/s
Quality : High
Add ID3 tag : No
Command line compressor : C:\Program Files\Exact Audio Copy\Flac\flac.exe
Additional command line options : -V -8 -T "Date=%year%" -T "Genre=%genre%" %source%
TOC of the extracted CD
Track | Start | Length | Start sector | End sector
---------------------------------------------------------
1 | 0:00.00 | 3:43.02 | 0 | 16726
2 | 3:43.02 | 3:09.25 | 16727 | 30926
3 | 6:52.27 | 2:43.48 | 30927 | 43199
4 | 9:36.00 | 2:18.47 | 43200 | 53596
5 | 11:54.47 | 5:12.48 | 53597 | 77044
6 | 17:07.20 | 6:09.20 | 77045 | 104739
7 | 23:16.40 | 2:59.35 | 104740 | 118199
8 | 26:16.00 | 4:45.72 | 118200 | 139646
9 | 31:01.72 | 6:40.03 | 139647 | 169649
10 | 37:42.00 | 3:18.34 | 169650 | 184533
11 | 41:00.34 | 6:46.26 | 184534 | 215009
12 | 47:46.60 | 4:08.70 | 215010 | 233679
13 | 51:55.55 | 2:57.54 | 233680 | 247008
Range status and errors
Selected range
Filename K:\ЕАС\Claudio Cojaniz Trio + Giancarlo Schiaffini - Alea.wav
Peak level 99.9 %
Extraction speed 1.9 X
Range quality 99.9 %
Test CRC 0C34A98A
Copy CRC 0C34A98A
Copy OK
No errors occurred
AccurateRip summary
Track 1 not present in database
Track 2 not present in database
Track 3 not present in database
Track 4 not present in database
Track 5 not present in database
Track 6 not present in database
Track 7 not present in database
Track 8 not present in database
Track 9 not present in database
Track 10 not present in database
Track 11 not present in database
Track 12 not present in database
Track 13 not present in database
None of the tracks are present in the AccurateRip database
End of status report
==== Log checksum 82874D2232A2C249BCFB2B6BC58E1369882533B45B9DEF11246E6D6F912B85D7 ====
 
Содержание индексной карты (.CUE)
REM GENRE Jazz
REM DATE 1996
REM DISCID BE0CDD0D
REM COMMENT "ExactAudioCopy v1.0b2"
CATALOG 0000000000000
PERFORMER "Claudio Cojaniz Trio + Giancarlo Schiaffini"
TITLE "Alea"
FILE "Claudio Cojaniz Trio + Giancarlo Schiaffini - Alea.flac" WAVE
TRACK 01 AUDIO
TITLE "Alea I "
PERFORMER "Claudio Cojaniz Trio + Giancarlo Schiaffini"
ISRC 000000000000
INDEX 01 00:00:00
TRACK 02 AUDIO
TITLE "Alea II"
PERFORMER "Claudio Cojaniz Trio + Giancarlo Schiaffini"
ISRC 000000000000
INDEX 01 03:43:02
TRACK 03 AUDIO
TITLE "Alea III"
PERFORMER "Claudio Cojaniz Trio + Giancarlo Schiaffini"
ISRC 000000000000
INDEX 01 06:52:27
TRACK 04 AUDIO
TITLE "Alea IV"
PERFORMER "Claudio Cojaniz Trio + Giancarlo Schiaffini"
ISRC 000000000000
INDEX 01 09:36:00
TRACK 05 AUDIO
TITLE "Alea V"
PERFORMER "Claudio Cojaniz Trio + Giancarlo Schiaffini"
ISRC 000000000000
INDEX 01 11:54:47
TRACK 06 AUDIO
TITLE "Alea VI (H2SO4) "
PERFORMER "Claudio Cojaniz Trio + Giancarlo Schiaffini"
ISRC 000000000000
INDEX 01 17:07:20
TRACK 07 AUDIO
TITLE "Alea VII"
PERFORMER "Claudio Cojaniz Trio + Giancarlo Schiaffini"
ISRC 000000000000
INDEX 01 23:16:40
TRACK 08 AUDIO
TITLE "Alea VIII"
PERFORMER "Claudio Cojaniz Trio + Giancarlo Schiaffini"
ISRC 000000000000
INDEX 01 26:16:00
TRACK 09 AUDIO
TITLE "Alea IX"
PERFORMER "Claudio Cojaniz Trio + Giancarlo Schiaffini"
ISRC 000000000000
INDEX 01 31:01:72
TRACK 10 AUDIO
TITLE "Alea X"
PERFORMER "Claudio Cojaniz Trio + Giancarlo Schiaffini"
ISRC 000000000000
INDEX 01 37:42:00
TRACK 11 AUDIO
TITLE "Alea XI "
PERFORMER "Claudio Cojaniz Trio + Giancarlo Schiaffini"
ISRC 000000000000
INDEX 01 41:00:34
TRACK 12 AUDIO
TITLE "Alea XII "
PERFORMER "Claudio Cojaniz Trio + Giancarlo Schiaffini"
ISRC 000000000000
INDEX 01 47:46:60
TRACK 13 AUDIO
TITLE "Alea XIII"
PERFORMER "Claudio Cojaniz Trio + Giancarlo Schiaffini"
ISRC 000000000000
INDEX 01 51:55:55
Доп. информация: Recorded at Radio Koper Studios, Capodistria (Slovenia), on December 14, 1994
 
Состав
Double Bass – Giovanni Maier
Drums – U.T. Ghandi
Piano, Voice – Claudio Cojaniz
Trombone – Giancarlo Schiaffini
Any questions -> support@pro-jazz.com. По всем вопросам пишите -> support@pro-jazz.com
19:26
160
Нет комментариев. Ваш будет первым!