Вы используете незарегистрированную версию компонента "Вкладки"!

Поиск

(Contemporary Jazz) Raffaello Pareti (w/ Francesco Bearzatti, Mauro "8" Ottolini, Walter Paoli) - The Roar at the Door - 2011, FLAC (tracks+.cue), lossless

(Contemporary Jazz) Raffaello Pareti (w/ Francesco Bearzatti, Mauro "8" Ottolini, Walter Paoli) - The Roar at the Door - 2011, FLAC (tracks+.cue), lossless
Треклист:
Raffaello Pareti / The Roar at the Door
Жанр: Contemporary Jazz
Страна-производитель диска: Italy
Год издания: 2011
Издатель (лейбл): artesuono
Номер по каталогу: art 097
Аудиокодек: FLAC (*.flac)
Тип рипа: tracks+.cue
Битрейт аудио: lossless
Продолжительность: 46:01
Источник (релизер): я
Наличие сканов в содержимом раздачи: нет
Треклист:
1. Penta Life 6:15
2. Diavoletti Ingegnosi 5:13
3. Agghiornò 3:56
4. The Scary Millenium 3:47
5. Marameo 2:58
6. De profundis per il ceto medio 7:21
7. The Roar at the Door 5:48
8. Mari Ermi 6:15
9. Poggibonsi State of Mind 4:28
All compositions and arrangements by Raffaello Pareti.
Recorded at Artesuono Recording Studios, Cavalicco (Udine), Italy.
Francesco Bearzatti – Tenor Saxophone, Clarinet
Mauro « 8 » Ottolini – Trombone
Raffaello Pareti – Contrabass
Walter Paoli – Drums
 
Лог создания рипа
Exact Audio Copy V1.0 beta 3 from 29. August 2011
EAC extraction logfile from 22. October 2013, 23:32
Raffaello Pareti / The Roar at the Door
Used drive : SlimtypeeNAU508 5 Adapter: 1 ID: 0
Read mode : Secure
Utilize accurate stream : Yes
Defeat audio cache : Yes
Make use of C2 pointers : No
Read offset correction : 6
Overread into Lead-In and Lead-Out : No
Fill up missing offset samples with silence : Yes
Delete leading and trailing silent blocks : No
Null samples used in CRC calculations : Yes
Used interface : Native Win32 interface for Win NT & 2000
Gap handling : Appended to previous track
Used output format : User Defined Encoder
Selected bitrate : 768 kBit/s
Quality : High
Add ID3 tag : No
Command line compressor : C:\Program Files (x86)\Exact Audio Copy\Flac\flac.exe
Additional command line options : -8 -V -T "ARTIST=%artist%" -T "TITLE=%title%" -T "ALBUM=%albumtitle%" -T "DATE=%year%" -T "TRACKNUMBER=%tracknr%" -T "GENRE=%genre%" -T "PERFORMER=%albuminterpret%" -T "COMPOSER=%composer%" %haslyrics%--tag-from-file=LYRICS="%lyricsfile%"%haslyrics% -T "ALBUMARTIST=%albumartist%" -T "DISCNUMBER=%cdnumber%" -T "TOTALDISCS=%totalcds%" -T "TOTALTRACKS=%numtracks%" -T "COMMENT=%comment%" %source% -o %dest%
TOC of the extracted CD
Track | Start | Length | Start sector | End sector
---------------------------------------------------------
1 | 0:00.00 | 6:14.72 | 0 | 28121
2 | 6:14.72 | 5:12.61 | 28122 | 51582
3 | 11:27.58 | 3:55.62 | 51583 | 69269
4 | 15:23.45 | 3:46.63 | 69270 | 86282
5 | 19:10.33 | 2:57.72 | 86283 | 99629
6 | 22:08.30 | 7:21.32 | 99630 | 132736
7 | 29:29.62 | 5:47.70 | 132737 | 158831
8 | 35:17.57 | 6:14.69 | 158832 | 186950
9 | 41:32.51 | 4:28.13 | 186951 | 207063
Track 1
Filename C:\EAC rips\01 - Penta Life.wav
Pre-gap length 0:00:02.00
Peak level 96.6 %
Extraction speed 2.4 X
Track quality 100.0 %
Test CRC 916CB71C
Copy CRC 916CB71C
Track not present in AccurateRip database
Copy OK
Track 2
Filename C:\EAC rips\02 - Diavoletti Ingegnosi.wav
Pre-gap length 0:00:02.00
Peak level 96.6 %
Extraction speed 2.7 X
Track quality 100.0 %
Test CRC 363455BD
Copy CRC 363455BD
Track not present in AccurateRip database
Copy OK
Track 3
Filename C:\EAC rips\03 - Agghiornò.wav
Pre-gap length 0:00:02.00
Peak level 96.6 %
Extraction speed 2.8 X
Track quality 100.0 %
Test CRC 9614E644
Copy CRC 9614E644
Track not present in AccurateRip database
Copy OK
Track 4
Filename C:\EAC rips\04 - The Scary Millenium.wav
Pre-gap length 0:00:02.00
Peak level 96.6 %
Extraction speed 3.0 X
Track quality 100.0 %
Test CRC C4F1B3C3
Copy CRC C4F1B3C3
Track not present in AccurateRip database
Copy OK
Track 5
Filename C:\EAC rips\05 - Marameo.wav
Pre-gap length 0:00:02.00
Peak level 96.6 %
Extraction speed 2.3 X
Track quality 99.9 %
Test CRC E247390B
Copy CRC E247390B
Track not present in AccurateRip database
Copy OK
Track 6
Filename C:\EAC rips\06 - De profundis per il ceto medio.wav
Pre-gap length 0:00:02.00
Peak level 96.6 %
Extraction speed 3.6 X
Track quality 100.0 %
Test CRC F51FD0F2
Copy CRC F51FD0F2
Track not present in AccurateRip database
Copy OK
Track 7
Filename C:\EAC rips\07 - The Roar at the Door.wav
Pre-gap length 0:00:02.00
Peak level 96.6 %
Extraction speed 3.2 X
Track quality 99.9 %
Test CRC 19210458
Copy CRC 19210458
Track not present in AccurateRip database
Copy OK
Track 8
Filename C:\EAC rips\08 - Mari Ermi.wav
Pre-gap length 0:00:02.00
Peak level 96.6 %
Extraction speed 4.0 X
Track quality 100.0 %
Test CRC C600F202
Copy CRC C600F202
Track not present in AccurateRip database
Copy OK
Track 9
Filename C:\EAC rips\09 - Poggibonsi State of Mind.wav
Pre-gap length 0:00:02.00
Peak level 96.6 %
Extraction speed 4.0 X
Track quality 100.0 %
Test CRC A2575B7C
Copy CRC A2575B7C
Track not present in AccurateRip database
Copy OK
None of the tracks are present in the AccurateRip database
No errors occurred
End of status report
---- CUETools DB Plugin V2.1.4
[CTDB TOCID: Dfp_4QUPR2l5QWeGFMKfbPp6AkY-] found
Submit result: already submitted
Track | CTDB Status
1 | (1/1) Accurately ripped
2 | (1/1) Accurately ripped
3 | (1/1) Accurately ripped
4 | (1/1) Accurately ripped
5 | (1/1) Accurately ripped
6 | (1/1) Accurately ripped
7 | (1/1) Accurately ripped
8 | (1/1) Accurately ripped
9 | (1/1) Accurately ripped
==== Log checksum A7668358108BEED0959E0473B8CBA977AF8293945540197BDB8F37A5662C9BB7 ====
 
Содержание индексной карты (.CUE)
REM GENRE Jazz
REM DATE 2011
REM DISCID 790AC809
REM COMMENT "ExactAudioCopy v1.0b3"
CATALOG 8028958000974
PERFORMER "Raffaello Pareti"
TITLE "The Roar at the Door"
FILE "01 - Penta Life.wav" WAVE
TRACK 01 AUDIO
TITLE "Penta Life"
PERFORMER "Raffaello Pareti"
ISRC ITI351100029
INDEX 01 00:00:00
TRACK 02 AUDIO
TITLE "Diavoletti Ingegnosi"
PERFORMER "Raffaello Pareti"
ISRC ITI351100030
INDEX 00 06:12:72
FILE "02 - Diavoletti Ingegnosi.wav" WAVE
INDEX 01 00:00:00
TRACK 03 AUDIO
TITLE "Agghiornò"
PERFORMER "Raffaello Pareti"
ISRC ITI351100031
INDEX 00 05:10:61
FILE "03 - Agghiornò.wav" WAVE
INDEX 01 00:00:00
TRACK 04 AUDIO
TITLE "The Scary Millenium"
PERFORMER "Raffaello Pareti"
ISRC ITI351100032
INDEX 00 03:53:62
FILE "04 - The Scary Millenium.wav" WAVE
INDEX 01 00:00:00
TRACK 05 AUDIO
TITLE "Marameo"
PERFORMER "Raffaello Pareti"
ISRC ITI351100033
INDEX 00 03:44:63
FILE "05 - Marameo.wav" WAVE
INDEX 01 00:00:00
TRACK 06 AUDIO
TITLE "De profundis per il ceto medio"
PERFORMER "Raffaello Pareti"
ISRC ITI351100034
INDEX 00 02:55:72
FILE "06 - De profundis per il ceto medio.wav" WAVE
INDEX 01 00:00:00
TRACK 07 AUDIO
TITLE "The Roar at the Door"
PERFORMER "Raffaello Pareti"
ISRC ITI351100035
INDEX 00 07:19:32
FILE "07 - The Roar at the Door.wav" WAVE
INDEX 01 00:00:00
TRACK 08 AUDIO
TITLE "Mari Ermi"
PERFORMER "Raffaello Pareti"
ISRC ITI351100036
INDEX 00 05:45:70
FILE "08 - Mari Ermi.wav" WAVE
INDEX 01 00:00:00
TRACK 09 AUDIO
TITLE "Poggibonsi State of Mind"
PERFORMER "Raffaello Pareti"
ISRC ITI351100037
INDEX 00 06:12:69
FILE "09 - Poggibonsi State of Mind.wav" WAVE
INDEX 01 00:00:00
По всем вопросам пишите личное сообщение пользователю M0p94ok.
19:24
173
Нет комментариев. Ваш будет первым!