Вы используете незарегистрированную версию компонента "Вкладки"!

Поиск

(Free Jazz, Contemporary Jazz, Free Improvisation) [CD] Corkestra (Xavier Charles, Wilbert De Joode, Andy Moor, Anne La Berge, Tony Buck, Michael Vatcher, Cor Fuhler, Tobias Delius) - Gas Station Sessions - 2011, FLAC (tracks+.cue), lossless

(Free Jazz, Contemporary Jazz, Free Improvisation) [CD] Corkestra (Xavier Charles, Wilbert De Joode, Andy Moor, Anne La Berge, Tony Buck, Michael Vatcher, Cor Fuhler, Tobias Delius) - Gas Station Sessions - 2011, FLAC (tracks+.cue), lossless
Треклист:
Corkestra / Gas Station Sessions
Жанр: Free Jazz, Contemporary Jazz, Free Improvisation
Носитель: CD
Страна-производитель диска: Netherlands
Год издания: 2011
Издатель (лейбл): De Platenbakkerij
Номер по каталогу: PB001
Аудиокодек: FLAC (*.flac)
Тип рипа: tracks+.cue
Битрейт аудио: lossless
Продолжительность: 49:07
Источник (релизер): whatcd (6060842)
Наличие сканов в содержимом раздачи: нет
Треклист:
1 Appletree 4:15
2 Cobbles 6:23
3 Dorst 6:22
4 Olive Oil 4:58
5 Sandcastle 1:38
6 Wine Cellar 7:14
7 Dune 3:40
8 Fata Morgana 4:20
9 Kurk 6:06
10 Pebbles 3:54
 
Лог создания рипа
X Lossless Decoder version 20140504 (147.0)
XLD extraction logfile from 2014-10-07 06:44:06 +0400
Corkestra / Gas Station Sessions
Used drive : HL-DT-ST DVDRW GX30N (revision RP09)
Media type : CD-Recordable
Ripper mode : XLD Secure Ripper
Disable audio cache : OK for the drive with a cache less than 1375KiB
Make use of C2 pointers : NO
Read offset correction : 6
Max retry count : 10000
Gap status : Analyzed, Appended (except HTOA)
TOC of the extracted CD
Track | Start | Length | Start sector | End sector
---------------------------------------------------------
1 | 00:00:00 | 04:17:06 | 0 | 19280
2 | 04:17:06 | 06:24:63 | 19281 | 48143
3 | 10:41:69 | 06:23:44 | 48144 | 76912
4 | 17:05:38 | 04:59:73 | 76913 | 99410
5 | 22:05:36 | 01:40:27 | 99411 | 106937
6 | 23:45:63 | 07:16:15 | 106938 | 139652
7 | 31:02:03 | 03:41:67 | 139653 | 156294
8 | 34:43:70 | 04:22:04 | 156295 | 175948
9 | 39:05:74 | 06:08:02 | 175949 | 203550
10 | 45:14:01 | 03:53:48 | 203551 | 221073
AccurateRip Summary
Disc not found in AccurateRip DB.
All Tracks
Album gain : -2.92 dB
Peak : 0.967590
Statistics
Read error : 0
Jitter error (maybe fixed) : 0
Retry sector count : 0
Damaged sector count : 0
Track 01
Filename : /Users/Shared/Grabbed/Corkestra - 2011 - Gas Station Sessions [MP3 320]/01 - Appletree.mp3
/Users/Shared/Grabbed/Corkestra - 2011 - Gas Station Sessions [MP3 V0]/01 - Appletree.mp3
/Users/Shared/Grabbed/Corkestra - 2011 - Gas Station Sessions [FLAC]/01 - Appletree.flac
Pre-gap length : 00:02:00
Track gain : -1.68 dB
Peak : 0.967590
CRC32 hash (test run) : CC5C34F9
CRC32 hash : CC5C34F9
CRC32 hash (skip zero) : F02862FC
AccurateRip v1 signature : 4CB34B4A
AccurateRip v2 signature : F1B5A67D
->Track not present in AccurateRip database.
Statistics
Read error : 0
Jitter error (maybe fixed) : 0
Retry sector count : 0
Damaged sector count : 0
Track 02
Filename : /Users/Shared/Grabbed/Corkestra - 2011 - Gas Station Sessions [MP3 320]/02 - Cobbles.mp3
/Users/Shared/Grabbed/Corkestra - 2011 - Gas Station Sessions [MP3 V0]/02 - Cobbles.mp3
/Users/Shared/Grabbed/Corkestra - 2011 - Gas Station Sessions [FLAC]/02 - Cobbles.flac
Track gain : 0.29 dB
Peak : 0.945374
CRC32 hash (test run) : 5F58C3DB
CRC32 hash : 5F58C3DB
CRC32 hash (skip zero) : 7563B3DF
AccurateRip v1 signature : 71650D8A
AccurateRip v2 signature : 441568A4
->Track not present in AccurateRip database.
Statistics
Read error : 0
Jitter error (maybe fixed) : 0
Retry sector count : 0
Damaged sector count : 0
Track 03
Filename : /Users/Shared/Grabbed/Corkestra - 2011 - Gas Station Sessions [MP3 320]/03 - Dorst.mp3
/Users/Shared/Grabbed/Corkestra - 2011 - Gas Station Sessions [MP3 V0]/03 - Dorst.mp3
/Users/Shared/Grabbed/Corkestra - 2011 - Gas Station Sessions [FLAC]/03 - Dorst.flac
Track gain : -3.89 dB
Peak : 0.894775
CRC32 hash (test run) : FB5D7DC8
CRC32 hash : FB5D7DC8
CRC32 hash (skip zero) : 54C7852E
AccurateRip v1 signature : B9AA6821
AccurateRip v2 signature : F119D8E1
->Track not present in AccurateRip database.
Statistics
Read error : 0
Jitter error (maybe fixed) : 0
Retry sector count : 0
Damaged sector count : 0
Track 04
Filename : /Users/Shared/Grabbed/Corkestra - 2011 - Gas Station Sessions [MP3 320]/04 - Olive Oil.mp3
/Users/Shared/Grabbed/Corkestra - 2011 - Gas Station Sessions [MP3 V0]/04 - Olive Oil.mp3
/Users/Shared/Grabbed/Corkestra - 2011 - Gas Station Sessions [FLAC]/04 - Olive Oil.flac
Track gain : -0.14 dB
Peak : 0.950714
CRC32 hash (test run) : E45A729A
CRC32 hash : E45A729A
CRC32 hash (skip zero) : 12278138
AccurateRip v1 signature : 9EB9A4FD
AccurateRip v2 signature : 28CAA2AF
->Track not present in AccurateRip database.
Statistics
Read error : 0
Jitter error (maybe fixed) : 0
Retry sector count : 0
Damaged sector count : 0
Track 05
Filename : /Users/Shared/Grabbed/Corkestra - 2011 - Gas Station Sessions [MP3 320]/05 - Sandcastle.mp3
/Users/Shared/Grabbed/Corkestra - 2011 - Gas Station Sessions [MP3 V0]/05 - Sandcastle.mp3
/Users/Shared/Grabbed/Corkestra - 2011 - Gas Station Sessions [FLAC]/05 - Sandcastle.flac
Track gain : -1.92 dB
Peak : 0.942841
CRC32 hash (test run) : E3189887
CRC32 hash : E3189887
CRC32 hash (skip zero) : 54C3058B
AccurateRip v1 signature : C85C10CC
AccurateRip v2 signature : A963E373
->Track not present in AccurateRip database.
Statistics
Read error : 0
Jitter error (maybe fixed) : 0
Retry sector count : 0
Damaged sector count : 0
Track 06
Filename : /Users/Shared/Grabbed/Corkestra - 2011 - Gas Station Sessions [MP3 320]/06 - Wine Cellar.mp3
/Users/Shared/Grabbed/Corkestra - 2011 - Gas Station Sessions [MP3 V0]/06 - Wine Cellar.mp3
/Users/Shared/Grabbed/Corkestra - 2011 - Gas Station Sessions [FLAC]/06 - Wine Cellar.flac
Track gain : 12.79 dB
Peak : 0.339813
CRC32 hash (test run) : 9213A7FE
CRC32 hash : 9213A7FE
CRC32 hash (skip zero) : 9211CF12
AccurateRip v1 signature : B06F425F
AccurateRip v2 signature : F7C3CE5D
->Track not present in AccurateRip database.
Statistics
Read error : 0
Jitter error (maybe fixed) : 0
Retry sector count : 0
Damaged sector count : 0
Track 07
Filename : /Users/Shared/Grabbed/Corkestra - 2011 - Gas Station Sessions [MP3 320]/07 - Dune.mp3
/Users/Shared/Grabbed/Corkestra - 2011 - Gas Station Sessions [MP3 V0]/07 - Dune.mp3
/Users/Shared/Grabbed/Corkestra - 2011 - Gas Station Sessions [FLAC]/07 - Dune.flac
Track gain : -1.00 dB
Peak : 0.939819
CRC32 hash (test run) : 55BDBF7B
CRC32 hash : 55BDBF7B
CRC32 hash (skip zero) : 73443D81
AccurateRip v1 signature : 106D5B6D
AccurateRip v2 signature : E2F225C4
->Track not present in AccurateRip database.
Statistics
Read error : 0
Jitter error (maybe fixed) : 0
Retry sector count : 0
Damaged sector count : 0
Track 08
Filename : /Users/Shared/Grabbed/Corkestra - 2011 - Gas Station Sessions [MP3 320]/08 - Fata Morgana.mp3
/Users/Shared/Grabbed/Corkestra - 2011 - Gas Station Sessions [MP3 V0]/08 - Fata Morgana.mp3
/Users/Shared/Grabbed/Corkestra - 2011 - Gas Station Sessions [FLAC]/08 - Fata Morgana.flac
Track gain : -6.89 dB
Peak : 0.967133
CRC32 hash (test run) : 2C4230C9
CRC32 hash : 2C4230C9
CRC32 hash (skip zero) : 4C403605
AccurateRip v1 signature : 9074918B
AccurateRip v2 signature : 789844D8
->Track not present in AccurateRip database.
Statistics
Read error : 0
Jitter error (maybe fixed) : 0
Retry sector count : 0
Damaged sector count : 0
Track 09
Filename : /Users/Shared/Grabbed/Corkestra - 2011 - Gas Station Sessions [MP3 320]/09 - Kurk.mp3
/Users/Shared/Grabbed/Corkestra - 2011 - Gas Station Sessions [MP3 V0]/09 - Kurk.mp3
/Users/Shared/Grabbed/Corkestra - 2011 - Gas Station Sessions [FLAC]/09 - Kurk.flac
Track gain : 0.33 dB
Peak : 0.953400
CRC32 hash (test run) : 762BFC8C
CRC32 hash : 762BFC8C
CRC32 hash (skip zero) : A4EDC3FF
AccurateRip v1 signature : E8007580
AccurateRip v2 signature : 6EBB38CA
->Track not present in AccurateRip database.
Statistics
Read error : 0
Jitter error (maybe fixed) : 0
Retry sector count : 0
Damaged sector count : 0
Track 10
Filename : /Users/Shared/Grabbed/Corkestra - 2011 - Gas Station Sessions [MP3 320]/10 - Pebbles.mp3
/Users/Shared/Grabbed/Corkestra - 2011 - Gas Station Sessions [MP3 V0]/10 - Pebbles.mp3
/Users/Shared/Grabbed/Corkestra - 2011 - Gas Station Sessions [FLAC]/10 - Pebbles.flac
Track gain : 1.51 dB
Peak : 0.956116
CRC32 hash (test run) : 9340D7EE
CRC32 hash : 9340D7EE
CRC32 hash (skip zero) : E89616D2
AccurateRip v1 signature : C2A3F3FC
AccurateRip v2 signature : 7898C54D
->Track not present in AccurateRip database.
Statistics
Read error : 0
Jitter error (maybe fixed) : 0
Retry sector count : 0
Damaged sector count : 0
No errors occurred
End of status report
-----BEGIN XLD SIGNATURE-----
j86i_1CyGzGfsvWDMOXzPblbcRHfqOLWVhKBEVp6M6BheHRU4.yydM8QDACNdAK6oTWKeKUoOqAI.bna9vCeApazN4AcdDrERIgK2i4
-----END XLD SIGNATURE-----
 
Содержание индексной карты (.CUE)
TITLE "Gas Station Sessions"
PERFORMER "Corkestra"
REM GENRE "Free Jazz"
REM DATE "2011"
REM DISCID 860B830A
REM REPLAYGAIN_ALBUM_GAIN -2.92 dB
REM REPLAYGAIN_ALBUM_PEAK 0.967590
FILE "01 - Appletree.flac" WAVE
TRACK 01 AUDIO
TITLE "Appletree"
PERFORMER "Corkestra"
REM REPLAYGAIN_TRACK_GAIN -1.68 dB
REM REPLAYGAIN_TRACK_PEAK 0.967590
INDEX 01 00:00:00
FILE "02 - Cobbles.flac" WAVE
TRACK 02 AUDIO
TITLE "Cobbles"
PERFORMER "Corkestra"
REM REPLAYGAIN_TRACK_GAIN 0.29 dB
REM REPLAYGAIN_TRACK_PEAK 0.945374
INDEX 01 00:00:00
FILE "03 - Dorst.flac" WAVE
TRACK 03 AUDIO
TITLE "Dorst"
PERFORMER "Corkestra"
REM REPLAYGAIN_TRACK_GAIN -3.89 dB
REM REPLAYGAIN_TRACK_PEAK 0.894775
INDEX 01 00:00:00
FILE "04 - Olive Oil.flac" WAVE
TRACK 04 AUDIO
TITLE "Olive Oil"
PERFORMER "Corkestra"
REM REPLAYGAIN_TRACK_GAIN -0.14 dB
REM REPLAYGAIN_TRACK_PEAK 0.950714
INDEX 01 00:00:00
FILE "05 - Sandcastle.flac" WAVE
TRACK 05 AUDIO
TITLE "Sandcastle"
PERFORMER "Corkestra"
REM REPLAYGAIN_TRACK_GAIN -1.92 dB
REM REPLAYGAIN_TRACK_PEAK 0.942841
INDEX 01 00:00:00
FILE "06 - Wine Cellar.flac" WAVE
TRACK 06 AUDIO
TITLE "Wine Cellar"
PERFORMER "Corkestra"
REM REPLAYGAIN_TRACK_GAIN 12.79 dB
REM REPLAYGAIN_TRACK_PEAK 0.339813
INDEX 01 00:00:00
FILE "07 - Dune.flac" WAVE
TRACK 07 AUDIO
TITLE "Dune"
PERFORMER "Corkestra"
REM REPLAYGAIN_TRACK_GAIN -1.00 dB
REM REPLAYGAIN_TRACK_PEAK 0.939819
INDEX 01 00:00:00
FILE "08 - Fata Morgana.flac" WAVE
TRACK 08 AUDIO
TITLE "Fata Morgana"
PERFORMER "Corkestra"
REM REPLAYGAIN_TRACK_GAIN -6.89 dB
REM REPLAYGAIN_TRACK_PEAK 0.967133
INDEX 01 00:00:00
FILE "09 - Kurk.flac" WAVE
TRACK 09 AUDIO
TITLE "Kurk"
PERFORMER "Corkestra"
REM REPLAYGAIN_TRACK_GAIN 0.33 dB
REM REPLAYGAIN_TRACK_PEAK 0.953400
INDEX 01 00:00:00
FILE "10 - Pebbles.flac" WAVE
TRACK 10 AUDIO
TITLE "Pebbles"
PERFORMER "Corkestra"
REM REPLAYGAIN_TRACK_GAIN 1.51 dB
REM REPLAYGAIN_TRACK_PEAK 0.956116
INDEX 01 00:00:00
Доп. информация: Recorded June 26th 2008 at Gasstation, Toronto
 
Состав
Cimbalom – Nora Mulder
Clarinet – Xavier Charles
Double Bass – Wilbert De Joode
Electric Guitar – Andy Moor
Flute [Flutes] – Anne La Berge
Percussion – Tony Buck
Percussion, Saw [Singing] – Michael Vatcher
Piano, Organ – Cor Fuhler
Tenor Saxophone, Clarinet – Tobias Delius
По всем вопросам пишите личное сообщение пользователю M0p94ok.
06:03
147
Нет комментариев. Ваш будет первым!