Вы используете незарегистрированную версию компонента "Вкладки"!

Поиск

(Avant-Garde Jazz) [CD] Gianluca Petrella - Il bidone. Omaggio a Nino Rota - 2013, FLAC (tracks+.cue), lossless

(Avant-Garde Jazz) [CD] Gianluca Petrella - Il bidone. Omaggio a Nino Rota - 2013, FLAC (tracks+.cue), lossless
Треклист:
Gianluca Petrella / Il bidone. Omaggio a Nino Rota
Жанр: Avant-Garde Jazz
Носитель: CD
Страна-производитель диска: Italy
Год издания: 2013
Издатель (лейбл): Spacebone Records
Номер по каталогу: BONE1005
Аудиокодек: FLAC (*.flac)
Тип рипа: tracks+.cue
Битрейт аудио: lossless
Продолжительность: 65:10
Источник (релизер): whatcd (merzbow1974)
Наличие сканов в содержимом раздачи: нет
Треклист:
1. The Godfather - Waltz
2. Il teatrino delle suore
3. Lo sceicco bianco / Rosa aurata
4. Parlami di me
5. Il bidone (Ballerina Night / L'ultimo bidone
6. Roma
7. La dolce vita (Via Veneto e i nobili / La bella malinconica / Cadillac)
8. La poupée automat
9. Lla ri lli ra'
 
Лог создания рипа
Exact Audio Copy V1.0 beta 3 from 29. August 2011
EAC extraction logfile from 18. December 2013, 17:19
Artista Sconosciuto / Titolo Sconosciuto
Used drive : Optiarc DVD RW AD-7240S Adapter: 4 ID: 0
Read mode : Secure
Utilize accurate stream : Yes
Defeat audio cache : Yes
Make use of C2 pointers : No
Read offset correction : 48
Overread into Lead-In and Lead-Out : No
Fill up missing offset samples with silence : Yes
Delete leading and trailing silent blocks : No
Null samples used in CRC calculations : Yes
Used interface : Native Win32 interface for Win NT & 2000
Gap handling : Appended to previous track
Used output format : User Defined Encoder
Selected bitrate : 128 kBit/s
Quality : High
Add ID3 tag : Yes
Command line compressor : C:\Programmi\Exact Audio Copy\Flac\flac.exe
Additional command line options : -8 -V -T "ARTIST=%artist%" -T "TITLE=%title%" -T "ALBUM=%albumtitle%" -T "DATE=%year%" -T "TRACKNUMBER=%tracknr%" -T "GENRE=%genre%" -T "PERFORMER=%albuminterpret%" -T "COMPOSER=%composer%" %haslyrics%--tag-from-file=LYRICS="%lyricsfile%"%haslyrics% -T "ALBUMARTIST=%albumartist%" -T "ALBUM ARTIST=%albumartist%" -T "DISCNUMBER=%cdnumber%" -T "TOTALDISCS=%totalcds%" -T "TOTALTRACKS=%numtracks%" -T "COMMENT=EAC V1.0 beta 2, Secure Mode, Test & Copy, AccurateRip, FLAC -8" %source% -o %dest%
TOC of the extracted CD
Track | Start | Length | Start sector | End sector
---------------------------------------------------------
1 | 0:00.00 | 3:33.59 | 0 | 16033
2 | 3:33.59 | 5:24.50 | 16034 | 40383
3 | 8:58.34 | 6:48.19 | 40384 | 71002
4 | 15:46.53 | 3:47.22 | 71003 | 88049
5 | 19:34.00 | 8:55.68 | 88050 | 128242
6 | 28:29.68 | 6:39.60 | 128243 | 158227
7 | 35:09.53 | 7:12.16 | 158228 | 190643
8 | 42:21.69 | 16:04.20 | 190644 | 262963
9 | 58:26.14 | 6:44.34 | 262964 | 293297
Track 1
Filename D:\whatcd\Gianluca Petrella - Il Bidone\01 Traccia01.wav
Pre-gap length 0:00:02.00
Peak level 99.4 %
Extraction speed 2.0 X
Track quality 99.9 %
Test CRC EB203079
Copy CRC EB203079
Track not present in AccurateRip database
Copy OK
Track 2
Filename D:\whatcd\Gianluca Petrella - Il Bidone\02 Traccia02.wav
Pre-gap length 0:00:01.98
Peak level 99.6 %
Extraction speed 2.5 X
Track quality 99.9 %
Test CRC 97E0E315
Copy CRC 97E0E315
Track not present in AccurateRip database
Copy OK
Track 3
Filename D:\whatcd\Gianluca Petrella - Il Bidone\03 Traccia03.wav
Pre-gap length 0:00:01.98
Peak level 99.4 %
Extraction speed 3.1 X
Track quality 100.0 %
Test CRC 316399B1
Copy CRC 316399B1
Track not present in AccurateRip database
Copy OK
Track 4
Filename D:\whatcd\Gianluca Petrella - Il Bidone\04 Traccia04.wav
Pre-gap length 0:00:01.98
Peak level 99.6 %
Extraction speed 3.2 X
Track quality 100.0 %
Test CRC 388DE24C
Copy CRC 388DE24C
Track not present in AccurateRip database
Copy OK
Track 5
Filename D:\whatcd\Gianluca Petrella - Il Bidone\05 Traccia05.wav
Pre-gap length 0:00:01.98
Peak level 99.4 %
Extraction speed 3.8 X
Track quality 100.0 %
Test CRC 876754F5
Copy CRC 876754F5
Track not present in AccurateRip database
Copy OK
Track 6
Filename D:\whatcd\Gianluca Petrella - Il Bidone\06 Traccia06.wav
Pre-gap length 0:00:01.98
Peak level 99.6 %
Extraction speed 4.0 X
Track quality 100.0 %
Test CRC 5CBC14AC
Copy CRC 5CBC14AC
Track not present in AccurateRip database
Copy OK
Track 7
Filename D:\whatcd\Gianluca Petrella - Il Bidone\07 Traccia07.wav
Pre-gap length 0:00:01.98
Peak level 99.6 %
Extraction speed 4.0 X
Track quality 99.9 %
Test CRC 729077F0
Copy CRC 729077F0
Track not present in AccurateRip database
Copy OK
Track 8
Filename D:\whatcd\Gianluca Petrella - Il Bidone\08 Traccia08.wav
Pre-gap length 0:00:01.98
Peak level 99.6 %
Extraction speed 5.0 X
Track quality 100.0 %
Test CRC 892A77A2
Copy CRC 892A77A2
Track not present in AccurateRip database
Copy OK
Track 9
Filename D:\whatcd\Gianluca Petrella - Il Bidone\09 Traccia09.wav
Pre-gap length 0:00:01.98
Peak level 99.6 %
Extraction speed 5.2 X
Track quality 100.0 %
Test CRC 9F8DC571
Copy CRC 9F8DC571
Track not present in AccurateRip database
Copy OK
None of the tracks are present in the AccurateRip database
No errors occurred
End of status report
---- CUETools DB Plugin V2.1.3
[CTDB TOCID: tOXrWkDLCuqqIYr03GEZ42k_Oz8-] disk not present in database, Submit result: database access error: The request was aborted: The request was canceled.
==== Log checksum 5096CD184E374A16AB15A9391AA18B66945CB92D68EC204076E84310BE450BC3 ====
 
Содержание индексной карты (.CUE)
REM DISCID 640F4609
REM COMMENT "ExactAudioCopy v1.0b3"
PERFORMER "Artista Sconosciuto"
TITLE "Titolo Sconosciuto"
FILE "01 Traccia01.wav" WAVE
TRACK 01 AUDIO
TITLE "Traccia01"
PERFORMER "Artista Sconosciuto"
INDEX 01 00:00:00
TRACK 02 AUDIO
TITLE "Traccia02"
PERFORMER "Artista Sconosciuto"
INDEX 00 03:31:60
FILE "02 Traccia02.wav" WAVE
INDEX 01 00:00:00
TRACK 03 AUDIO
TITLE "Traccia03"
PERFORMER "Artista Sconosciuto"
INDEX 00 05:22:51
FILE "03 Traccia03.wav" WAVE
INDEX 01 00:00:00
TRACK 04 AUDIO
TITLE "Traccia04"
PERFORMER "Artista Sconosciuto"
INDEX 00 06:46:20
FILE "04 Traccia04.wav" WAVE
INDEX 01 00:00:00
TRACK 05 AUDIO
TITLE "Traccia05"
PERFORMER "Artista Sconosciuto"
INDEX 00 03:45:23
FILE "05 Traccia05.wav" WAVE
INDEX 01 00:00:00
TRACK 06 AUDIO
TITLE "Traccia06"
PERFORMER "Artista Sconosciuto"
INDEX 00 08:53:69
FILE "06 Traccia06.wav" WAVE
INDEX 01 00:00:00
TRACK 07 AUDIO
TITLE "Traccia07"
PERFORMER "Artista Sconosciuto"
INDEX 00 06:37:61
FILE "07 Traccia07.wav" WAVE
INDEX 01 00:00:00
TRACK 08 AUDIO
TITLE "Traccia08"
PERFORMER "Artista Sconosciuto"
INDEX 00 07:10:17
FILE "08 Traccia08.wav" WAVE
INDEX 01 00:00:00
TRACK 09 AUDIO
TITLE "Traccia09"
PERFORMER "Artista Sconosciuto"
INDEX 00 16:02:21
FILE "09 Traccia09.wav" WAVE
INDEX 01 00:00:00
 
Состав
Gianluca Petrella - trombone, elettronica
Beppe Scardino - sax baritono, clarinetto basso
Giovanni Guidi - pianoforte
Andrea Sartori - sartofono, elettronica
John Rehmer - contrabbasso
Cristiano Calcagnile - batteria
John De Leo - voce, effetti
Guests:
Enrico Rava - tromba (6)
Dino Piana - trombone a pistoni (5)
Muzio Petrella - trombone e armonica (4)
По всем вопросам пишите личное сообщение пользователю M0p94ok.
06:03
146
Нет комментариев. Ваш будет первым!