Вы используете незарегистрированную версию компонента "Вкладки"!

Поиск

(Avant-Garde Jazz, Experimental, Electroacoustic) [CDR] Alessio Riccio, David Shea, Ellery Eskelin - Drawing - Opus2: Paul Klee - 2003, FLAC (tracks+.cue), lossless

(Avant-Garde Jazz, Experimental, Electroacoustic) [CDR] Alessio Riccio, David Shea, Ellery Eskelin - Drawing - Opus2: Paul Klee - 2003, FLAC (tracks+.cue), lossless
Треклист:
Alessio Riccio, David Shea, Ellery Eskelin / Drawing - Opus2: Paul Klee
Жанр: Avant-Garde Jazz, Experimental, Electroacoustic
Носитель: CDR
Страна-производитель диска: Italy
Год издания: 2003
Издатель (лейбл): Unorthodox Recordings
Номер по каталогу: Unhx/005/CD
Страна исполнителя (группы): Italy, US
Аудиокодек: FLAC (*.flac)
Тип рипа: tracks+.cue
Битрейт аудио: lossless
Продолжительность: 68:34
Источник (релизер): свой фирменный диск
Наличие сканов в содержимом раздачи:
Треклист:
1. Luna Of The Barbarians 13:59
2. Strange Garden 3:57
3. Death And Fire 3:47
4. The Gray One And The Coast 7:10
5. Clown 4:34
6. Underwater Garden 7:07
7. Le Jardin Magique 3:04
8. Outbreak Of Fear 4:21
9. Destroyed Labyrinth 7:54
10. Warning Of The Ships 3:08
11. The Timid Brute 9:09
 
Лог создания рипа
Exact Audio Copy V1.0 beta 3 from 29. August 2011
EAC extraction logfile from 14. September 2014, 15:42
Alessio Riccio / Drawing - Opus2: Paul Klee
Used drive : PIONEER DVD-RW DVR-115D Adapter: 0 ID: 0
Read mode : Secure
Utilize accurate stream : Yes
Defeat audio cache : Yes
Make use of C2 pointers : No
Read offset correction : 48
Overread into Lead-In and Lead-Out : No
Fill up missing offset samples with silence : Yes
Delete leading and trailing silent blocks : No
Null samples used in CRC calculations : Yes
Used interface : Installed external ASPI interface
Gap handling : Appended to previous track
Used output format : User Defined Encoder
Selected bitrate : 768 kBit/s
Quality : High
Add ID3 tag : No
Command line compressor : C:\Program Files\Exact Audio Copy\Flac\flac.exe
Additional command line options : -6 -V -T "ARTIST=%artist%" -T "TITLE=%title%" -T "ALBUM=%albumtitle%" -T "DATE=%year%" -T "TRACKNUMBER=%tracknr%" -T "GENRE=%genre%" -T "COMMENT=%comment%" -T "BAND=%albuminterpret%" -T "COMPOSER=%composer%" %haslyrics%--tag-from-file=LYRICS="%lyricsfile%"%haslyrics% -T "DISCNUMBER=%cdnumber%" -T "TOTALDISCS=%totalcds%" -T "TOTALTRACKS=%numtracks%" %hascover%--picture="%coverfile%"%hascover% %source% -o %dest%
TOC of the extracted CD
Track | Start | Length | Start sector | End sector
---------------------------------------------------------
1 | 0:00.00 | 14:01.72 | 0 | 63146
2 | 14:01.72 | 3:59.03 | 63147 | 81074
3 | 18:01.00 | 3:49.43 | 81075 | 98292
4 | 21:50.43 | 7:12.45 | 98293 | 130737
5 | 29:03.13 | 4:36.05 | 130738 | 151442
6 | 33:39.18 | 7:09.01 | 151443 | 183618
7 | 40:48.19 | 3:06.14 | 183619 | 197582
8 | 43:54.33 | 4:23.15 | 197583 | 217322
9 | 48:17.48 | 7:56.49 | 217323 | 253071
10 | 56:14.22 | 3:10.38 | 253072 | 267359
11 | 59:24.60 | 9:09.52 | 267360 | 308586
Track 1
Filename D:\zzz\01 - Luna Of The Barbarians.wav
Pre-gap length 0:00:02.00
Peak level 100.0 %
Extraction speed 5.3 X
Track quality 99.9 %
Test CRC 78D69A1C
Copy CRC 78D69A1C
Track not present in AccurateRip database
Copy OK
Track 2
Filename D:\zzz\02 - Strange Garden.wav
Peak level 100.0 %
Extraction speed 5.1 X
Track quality 99.9 %
Test CRC F4C695D7
Copy CRC F4C695D7
Track not present in AccurateRip database
Copy OK
Track 3
Filename D:\zzz\03 - Death And Fire.wav
Peak level 100.0 %
Extraction speed 6.0 X
Track quality 100.0 %
Test CRC BCC91D31
Copy CRC BCC91D31
Track not present in AccurateRip database
Copy OK
Track 4
Filename D:\zzz\04 - The Gray One And The Coast.wav
Peak level 100.0 %
Extraction speed 6.3 X
Track quality 99.9 %
Test CRC 06C3029F
Copy CRC 06C3029F
Track not present in AccurateRip database
Copy OK
Track 5
Filename D:\zzz\05 - Clown.wav
Peak level 100.0 %
Extraction speed 6.8 X
Track quality 100.0 %
Test CRC 40727C93
Copy CRC 40727C93
Track not present in AccurateRip database
Copy OK
Track 6
Filename D:\zzz\06 - Underwater Garden.wav
Peak level 100.0 %
Extraction speed 7.5 X
Track quality 100.0 %
Test CRC 85B195E7
Copy CRC 85B195E7
Track not present in AccurateRip database
Copy OK
Track 7
Filename D:\zzz\07 - Le Jardin Magique.wav
Peak level 100.0 %
Extraction speed 7.0 X
Track quality 100.0 %
Test CRC 46E1B5A8
Copy CRC 46E1B5A8
Track not present in AccurateRip database
Copy OK
Track 8
Filename D:\zzz\08 - Outbreak Of Fear.wav
Peak level 100.0 %
Extraction speed 7.5 X
Track quality 100.0 %
Test CRC 21297F84
Copy CRC 21297F84
Track not present in AccurateRip database
Copy OK
Track 9
Filename D:\zzz\09 - Destroyed Labyrinth.wav
Peak level 100.0 %
Extraction speed 8.2 X
Track quality 100.0 %
Test CRC 545A8953
Copy CRC 545A8953
Track not present in AccurateRip database
Copy OK
Track 10
Filename D:\zzz\10 - Warning Of The Ships.wav
Peak level 100.0 %
Extraction speed 7.6 X
Track quality 100.0 %
Test CRC E458204B
Copy CRC E458204B
Track not present in AccurateRip database
Copy OK
Track 11
Filename D:\zzz\11 - The Timid Brute.wav
Peak level 100.0 %
Extraction speed 8.9 X
Track quality 100.0 %
Test CRC F8880338
Copy CRC F8880338
Track not present in AccurateRip database
Copy OK
None of the tracks are present in the AccurateRip database
No errors occurred
End of status report
==== Log checksum CE487E3CDE3E5E2EF5F76870DE1AF0F332B5805072E982A3B86ECCDA646624F4 ====
 
Содержание индексной карты (.CUE)
REM GENRE "Avant-Garde Jazz"
REM DATE 2003
REM DISCID 9910120B
REM COMMENT "ExactAudioCopy v1.0b3"
PERFORMER "Alessio Riccio"
TITLE "Drawing - Opus2: Paul Klee"
FILE "01 - Luna Of The Barbarians.wav" WAVE
TRACK 01 AUDIO
TITLE "Luna Of The Barbarians"
PERFORMER "Alessio Riccio"
INDEX 01 00:00:00
FILE "02 - Strange Garden.wav" WAVE
TRACK 02 AUDIO
TITLE "Strange Garden"
PERFORMER "Alessio Riccio"
INDEX 01 00:00:00
FILE "03 - Death And Fire.wav" WAVE
TRACK 03 AUDIO
TITLE "Death And Fire"
PERFORMER "Alessio Riccio"
INDEX 01 00:00:00
FILE "04 - The Gray One And The Coast.wav" WAVE
TRACK 04 AUDIO
TITLE "The Gray One And The Coast"
PERFORMER "Alessio Riccio"
INDEX 01 00:00:00
FILE "05 - Clown.wav" WAVE
TRACK 05 AUDIO
TITLE "Clown"
PERFORMER "Alessio Riccio"
INDEX 01 00:00:00
FILE "06 - Underwater Garden.wav" WAVE
TRACK 06 AUDIO
TITLE "Underwater Garden"
PERFORMER "Alessio Riccio"
INDEX 01 00:00:00
FILE "07 - Le Jardin Magique.wav" WAVE
TRACK 07 AUDIO
TITLE "Le Jardin Magique"
PERFORMER "Alessio Riccio"
INDEX 01 00:00:00
FILE "08 - Outbreak Of Fear.wav" WAVE
TRACK 08 AUDIO
TITLE "Outbreak Of Fear"
PERFORMER "Alessio Riccio"
INDEX 01 00:00:00
FILE "09 - Destroyed Labyrinth.wav" WAVE
TRACK 09 AUDIO
TITLE "Destroyed Labyrinth"
PERFORMER "Alessio Riccio"
INDEX 01 00:00:00
FILE "10 - Warning Of The Ships.wav" WAVE
TRACK 10 AUDIO
TITLE "Warning Of The Ships"
PERFORMER "Alessio Riccio"
INDEX 01 00:00:00
FILE "11 - The Timid Brute.wav" WAVE
TRACK 11 AUDIO
TITLE "The Timid Brute"
PERFORMER "Alessio Riccio"
INDEX 01 00:00:00
 
Лог проверки качества
d:\>d:\aucdtect -d/-m0 d:\zzz\*.wav
auCDtect: CD records authenticity detector, version 0.8.2
Copyright (c) 2004 Oleg Berngardt. All rights reserved.
Copyright (c) 2004 Alexander Djourik. All rights reserved.
------------------------------------------------------------
Processing file: [01. Luna Of The Barbarians.wav]
------------------------------------------------------------
This track looks like CDDA with probability 100%
------------------------------------------------------------
Processing file: [02. Strange Garden.wav]
------------------------------------------------------------
This track looks like CDDA with probability 100%
------------------------------------------------------------
Processing file: [03. Death And Fire.wav]
------------------------------------------------------------
This track looks like CDDA with probability 100%
------------------------------------------------------------
Processing file: [04. The Gray One And The Coast.wav]
------------------------------------------------------------
This track looks like CDDA with probability 100%
------------------------------------------------------------
Processing file: [05. Clown.wav]
------------------------------------------------------------
This track looks like CDDA with probability 100%
------------------------------------------------------------
Processing file: [06. Underwater Garden.wav]
------------------------------------------------------------
This track looks like CDDA with probability 100%
------------------------------------------------------------
Processing file: [07. Le Jardin Magique.wav]
------------------------------------------------------------
This track looks like CDDA with probability 100%
------------------------------------------------------------
Processing file: [08. Outbreak Of Fear.wav]
------------------------------------------------------------
This track looks like CDDA with probability 100%
------------------------------------------------------------
Processing file: [09. Destroyed Labyrinth.wav]
------------------------------------------------------------
This track looks like CDDA with probability 100%
------------------------------------------------------------
Processing file: [10. Warning Of The Ships.wav]
------------------------------------------------------------
This track looks like CDDA with probability 100%
------------------------------------------------------------
Processing file: [11. The Timid Brute.wav]
------------------------------------------------------------
This track looks like CDDA with probability 100%
------------------------------------------------------------
Final Conclusion:
------------------------------------------------------------
These tracks looks like CDDA with probability 100%
Доп. информация:
 
Album Info & Downtown Music Gallery Review
(A. Riccio)
Produced by Alessio Riccio
Work in progress realized at Plastic Sun Studio - Firenze, Italy and completed during October 2003
Recorded by Guido Melis, Lorenzo Desiati, Alberto Mantellassi and Alessio Riccio
Mixed, edited and mastered by Guido Melis
Graphics by Alexander Neuwahl
Images are graphic elaborations of Paul Klee's works "Zwitscher Maschine" (1922), "Besessenes Madchen" (1924), "Gespenst Eines Genies" (1922), "Maske Furcht" (1932)
Sound sculptures Stallychimes and Gong Sculpture No. 10 by Steve Hubback
On this extraordinary trio effort Ellery Eskelin plays tenor sax, David Shea plays samples & other keyboards and Alessio plays drums, loops, a wide variety of odd percussion (gong sculptures, water drums and metals, etc.) and tapes. Nice to hear something new from former downtown sampler wiz David Shea, who seemed to have disappeared from this scene in recent years. I know that he spent time in Italy a few years back recording for Sub Rosa, but even those discs have disappeared as well. Alessio's fabulous drumming is at the center of this trio, spinning and weaving his layers of rhythmic schemes as Ellery plays marvelously on top and David swirls mysterious samples and keyboard sounds around the mesmerizing blend. The artwork of Paul Klee graces the CD cover and booklet and was an inspiration for the great disc. About 69 minutes long and completely fascinating throughout! - Bruce Lee Gallanter, Downtown Music Gallery
 
Состав
Alessio Riccio: manipulated tapes (1,2,3,5,6,7,8), drums (1,3,6,7,8,9,10,11), live loops (1,9,11), looped live groove (1), water drums (1), pod shaker (1), metal claves (1), gong sculpture No. 10 (1), randomized darabukkas (1), softly shakered metals (2), grouped and altered samples (2), randomized drums (2,4), processed metals (4), bellchimes (5), bass drum (5), stallychimes (7), processed vocals (10)
David Shea: samples (1,2,5,6,7,8,9,10,11), digital piano (3,9), keyboards (4)
Ellery Eskelin: tenor sax
Mirko Guerrini: moezinho bass flute (6), pakistan flute (6)
По всем вопросам пишите личное сообщение пользователю M0p94ok.
06:02
165
Нет комментариев. Ваш будет первым!