Вы используете незарегистрированную версию компонента "Вкладки"!

Поиск

(Avant-Garde Jazz, Experimental, Electroacoustic) [CDR] Alessio Riccio (feat. Elliott Sharp, Stefano Battaglia, Tim Berne) - Hallucinated Memories - 2003, FLAC (tracks+.cue), lossless

(Avant-Garde Jazz, Experimental, Electroacoustic) [CDR] Alessio Riccio (feat. Elliott Sharp, Stefano Battaglia, Tim Berne) - Hallucinated Memories - 2003, FLAC (tracks+.cue), lossless
Треклист:
Alessio Riccio / Hallucinated Memories
Жанр: Avant-Garde Jazz, Experimental, Electroacoustic
Носитель: CDR
Страна-производитель диска: Italy
Год издания: 2003
Издатель (лейбл): Unorthodox Recordings
Номер по каталогу: Unhx/008/CD
Страна исполнителя (группы): Italy
Аудиокодек: FLAC (*.flac)
Тип рипа: tracks+.cue
Битрейт аудио: lossless
Продолжительность: 72:54
Источник (релизер): свой фирменный диск
Наличие сканов в содержимом раздачи:
Треклист:
1. Impermanence 3:56
2. The Flight 9:54
3. Morgon / Kara 2:42
4. First Narrow Passage 3:13
5. Screeching 0:23
6. Fear 5:37
7. Symptoms 0:22
8. Second Narrow Passage 2:25
9. Allured 0:39
10. The Elephant Is Slow To Mate 1:23
11. Blind Landing 1:38
12. Segregate 8:57
13. Third Narrow Passage 2:35
14. Intently 0:30
15. Fourth Narrow Passage 4:10
16. Bewitched Cloister 0:53
17. Whales Weep Not! 4:32
18. In The Black Room 4:32
19. Ellipsoid 3:28
20. Lynching 1:31
21. Butterfly 1:14
22. White Ants And Worms 0:48
23. Ghosts - Part One: Assault / Part Two: Vodou 10:30
24. Retreat 0:49
 
Лог создания рипа
Exact Audio Copy V1.0 beta 3 from 29. August 2011
EAC extraction logfile from 13. September 2014, 22:40
Alessio Riccio / Hallucinated Memories
Used drive : TSSTcorpCDDVDW SH-222AB Adapter: 1 ID: 0
Read mode : Secure
Utilize accurate stream : Yes
Defeat audio cache : Yes
Make use of C2 pointers : No
Read offset correction : 6
Overread into Lead-In and Lead-Out : No
Fill up missing offset samples with silence : Yes
Delete leading and trailing silent blocks : No
Null samples used in CRC calculations : Yes
Used interface : Installed external ASPI interface
Gap handling : Appended to previous track
Used output format : User Defined Encoder
Selected bitrate : 768 kBit/s
Quality : High
Add ID3 tag : No
Command line compressor : C:\Program Files\Exact Audio Copy\Flac\flac.exe
Additional command line options : -6 -V -T "ARTIST=%artist%" -T "TITLE=%title%" -T "ALBUM=%albumtitle%" -T "DATE=%year%" -T "TRACKNUMBER=%tracknr%" -T "GENRE=%genre%" -T "COMMENT=%comment%" -T "BAND=%albuminterpret%" -T "COMPOSER=%composer%" %haslyrics%--tag-from-file=LYRICS="%lyricsfile%"%haslyrics% -T "DISCNUMBER=%cdnumber%" -T "TOTALDISCS=%totalcds%" -T "TOTALTRACKS=%numtracks%" %hascover%--picture="%coverfile%"%hascover% %source% -o %dest%
TOC of the extracted CD
Track | Start | Length | Start sector | End sector
---------------------------------------------------------
1 | 0:00.00 | 3:56.38 | 0 | 17737
2 | 3:56.38 | 9:54.70 | 17738 | 62357
3 | 13:51.33 | 2:42.03 | 62358 | 74510
4 | 16:33.36 | 3:13.52 | 74511 | 89037
5 | 19:47.13 | 0:23.17 | 89038 | 90779
6 | 20:10.30 | 5:37.47 | 90780 | 116101
7 | 25:48.02 | 0:22.20 | 116102 | 117771
8 | 26:10.22 | 2:25.23 | 117772 | 128669
9 | 28:35.45 | 0:39.08 | 128670 | 131602
10 | 29:14.53 | 1:23.06 | 131603 | 137833
11 | 30:37.59 | 1:38.66 | 137834 | 145249
12 | 32:16.50 | 8:57.69 | 145250 | 185593
13 | 41:14.44 | 2:35.43 | 185594 | 197261
14 | 43:50.12 | 0:30.08 | 197262 | 199519
15 | 44:20.20 | 4:10.38 | 199520 | 218307
16 | 48:30.58 | 0:53.49 | 218308 | 222331
17 | 49:24.32 | 4:32.01 | 222332 | 242732
18 | 53:56.33 | 0:34.13 | 242733 | 245295
19 | 54:30.46 | 3:28.63 | 245296 | 260958
20 | 57:59.34 | 1:31.21 | 260959 | 267804
21 | 59:30.55 | 1:14.47 | 267805 | 273401
22 | 60:45.27 | 0:48.63 | 273402 | 277064
23 | 61:34.15 | 10:30.25 | 277065 | 324339
24 | 72:04.40 | 0:49.64 | 324340 | 328078
Track 1
Filename D:\zzz\01 - Impermanence.wav
Pre-gap length 0:00:02.00
Peak level 100.0 %
Extraction speed 2.2 X
Track quality 100.0 %
Test CRC 97B1EEB4
Copy CRC 97B1EEB4
Track not present in AccurateRip database
Copy OK
Track 2
Filename D:\zzz\02 - The Flight.wav
Peak level 100.0 %
Extraction speed 2.8 X
Track quality 99.9 %
Test CRC 88A742C8
Copy CRC 88A742C8
Track not present in AccurateRip database
Copy OK
Track 3
Filename D:\zzz\03 - Morgon , Kara.wav
Peak level 100.0 %
Extraction speed 5.6 X
Track quality 100.0 %
Test CRC 88A62800
Copy CRC 88A62800
Track not present in AccurateRip database
Copy OK
Track 4
Filename D:\zzz\04 - First Narrow Passage.wav
Peak level 100.0 %
Extraction speed 5.7 X
Track quality 100.0 %
Test CRC 959AEBC2
Copy CRC 959AEBC2
Track not present in AccurateRip database
Copy OK
Track 5
Filename D:\zzz\05 - Screeching.wav
Peak level 100.0 %
Extraction speed 1.7 X
Track quality 99.5 %
Test CRC 495A9061
Copy CRC 495A9061
Track not present in AccurateRip database
Copy OK
Track 6
Filename D:\zzz\06 - Fear.wav
Peak level 100.0 %
Extraction speed 6.3 X
Track quality 99.9 %
Test CRC 6394C73F
Copy CRC 6394C73F
Track not present in AccurateRip database
Copy OK
Track 7
Filename D:\zzz\07 - Symptoms.wav
Peak level 78.7 %
Extraction speed 2.8 X
Track quality 100.0 %
Test CRC C91E11DA
Copy CRC C91E11DA
Track not present in AccurateRip database
Copy OK
Track 8
Filename D:\zzz\08 - Second Narrow Passage.wav
Peak level 100.0 %
Extraction speed 6.4 X
Track quality 100.0 %
Test CRC BD61B8F4
Copy CRC BD61B8F4
Track not present in AccurateRip database
Copy OK
Track 9
Filename D:\zzz\09 - Allured.wav
Peak level 100.0 %
Extraction speed 4.1 X
Track quality 100.0 %
Test CRC AD682E03
Copy CRC AD682E03
Track not present in AccurateRip database
Copy OK
Track 10
Filename D:\zzz\10 - The Elephant Is Slow To Mate.wav
Peak level 100.0 %
Extraction speed 5.7 X
Track quality 100.0 %
Test CRC CC103842
Copy CRC CC103842
Track not present in AccurateRip database
Copy OK
Track 11
Filename D:\zzz\11 - Blind Landing.wav
Peak level 100.0 %
Extraction speed 6.0 X
Track quality 100.0 %
Test CRC C882CEE7
Copy CRC C882CEE7
Track not present in AccurateRip database
Copy OK
Track 12
Filename D:\zzz\12 - Segregate.wav
Peak level 100.0 %
Extraction speed 8.2 X
Track quality 100.0 %
Test CRC 39B77701
Copy CRC 39B77701
Track not present in AccurateRip database
Copy OK
Track 13
Filename D:\zzz\13 - Third Narrow Passage.wav
Peak level 100.0 %
Extraction speed 7.3 X
Track quality 100.0 %
Test CRC 004B230F
Copy CRC 004B230F
Track not present in AccurateRip database
Copy OK
Track 14
Filename D:\zzz\14 - Intently.wav
Peak level 100.0 %
Extraction speed 4.0 X
Track quality 100.0 %
Test CRC 10C6A97F
Copy CRC 10C6A97F
Track not present in AccurateRip database
Copy OK
Track 15
Filename D:\zzz\15 - Fourth Narrow Passage.wav
Peak level 100.0 %
Extraction speed 8.1 X
Track quality 100.0 %
Test CRC FF8356BE
Copy CRC FF8356BE
Track not present in AccurateRip database
Copy OK
Track 16
Filename D:\zzz\16 - Bewitched Cloister.wav
Peak level 94.5 %
Extraction speed 5.5 X
Track quality 100.0 %
Test CRC 199FF174
Copy CRC 199FF174
Track not present in AccurateRip database
Copy OK
Track 17
Filename D:\zzz\17 - Whales Weep Not!.wav
Peak level 100.0 %
Extraction speed 8.5 X
Track quality 100.0 %
Test CRC 7395A1C5
Copy CRC 7395A1C5
Track not present in AccurateRip database
Copy OK
Track 18
Filename D:\zzz\18 - In The Black Room.wav
Peak level 100.0 %
Extraction speed 2.9 X
Track quality 99.6 %
Test CRC 01C7ED1A
Copy CRC 01C7ED1A
Track not present in AccurateRip database
Copy OK
Track 19
Filename D:\zzz\19 - Ellipsoid.wav
Peak level 100.0 %
Extraction speed 7.3 X
Track quality 99.9 %
Test CRC C32E9B7E
Copy CRC C32E9B7E
Track not present in AccurateRip database
Copy OK
Track 20
Filename D:\zzz\20 - Lynching.wav
Peak level 100.0 %
Extraction speed 5.6 X
Track quality 99.8 %
Test CRC 539DBAA6
Copy CRC 539DBAA6
Track not present in AccurateRip database
Copy OK
Track 21
Filename D:\zzz\21 - Butterfly.wav
Peak level 100.0 %
Extraction speed 6.6 X
Track quality 100.0 %
Test CRC EB2DAAC2
Copy CRC EB2DAAC2
Track not present in AccurateRip database
Copy OK
Track 22
Filename D:\zzz\22 - White Ants And Worms.wav
Peak level 100.0 %
Extraction speed 5.8 X
Track quality 100.0 %
Test CRC 29AC33E5
Copy CRC 29AC33E5
Track not present in AccurateRip database
Copy OK
Track 23
Filename D:\zzz\23 - Ghosts - Part One- Assault , Part Two- Vodou.wav
Peak level 100.0 %
Extraction speed 9.9 X
Track quality 100.0 %
Test CRC 7BE31270
Copy CRC 7BE31270
Track not present in AccurateRip database
Copy OK
Track 24
Filename D:\zzz\24 - Retreat.wav
Peak level 93.0 %
Extraction speed 6.1 X
Track quality 100.0 %
Test CRC BAA82E78
Copy CRC BAA82E78
Track not present in AccurateRip database
Copy OK
None of the tracks are present in the AccurateRip database
No errors occurred
End of status report
==== Log checksum F1DC09AB41831F11C34A3FF2CFFC663C510B7E33D66772BB57F86B381EDD623B ====
 
Содержание индексной карты (.CUE)
REM GENRE "Experimental Jazz"
REM DATE 2003
REM DISCID 84111618
REM COMMENT "ExactAudioCopy v1.0b3"
PERFORMER "Alessio Riccio"
TITLE "Hallucinated Memories"
FILE "01 - Impermanence.wav" WAVE
TRACK 01 AUDIO
TITLE "Impermanence"
PERFORMER "Alessio Riccio"
INDEX 01 00:00:00
FILE "02 - The Flight.wav" WAVE
TRACK 02 AUDIO
TITLE "The Flight"
PERFORMER "Alessio Riccio"
INDEX 01 00:00:00
FILE "03 - Morgon , Kara.wav" WAVE
TRACK 03 AUDIO
TITLE "Morgon / Kara"
PERFORMER "Alessio Riccio"
INDEX 01 00:00:00
FILE "04 - First Narrow Passage.wav" WAVE
TRACK 04 AUDIO
TITLE "First Narrow Passage"
PERFORMER "Alessio Riccio"
INDEX 01 00:00:00
FILE "05 - Screeching.wav" WAVE
TRACK 05 AUDIO
TITLE "Screeching"
PERFORMER "Alessio Riccio"
INDEX 01 00:00:00
FILE "06 - Fear.wav" WAVE
TRACK 06 AUDIO
TITLE "Fear"
PERFORMER "Alessio Riccio"
INDEX 01 00:00:00
FILE "07 - Symptoms.wav" WAVE
TRACK 07 AUDIO
TITLE "Symptoms"
PERFORMER "Alessio Riccio"
INDEX 01 00:00:00
FILE "08 - Second Narrow Passage.wav" WAVE
TRACK 08 AUDIO
TITLE "Second Narrow Passage"
PERFORMER "Alessio Riccio"
INDEX 01 00:00:00
FILE "09 - Allured.wav" WAVE
TRACK 09 AUDIO
TITLE "Allured"
PERFORMER "Alessio Riccio"
INDEX 01 00:00:00
FILE "10 - The Elephant Is Slow To Mate.wav" WAVE
TRACK 10 AUDIO
TITLE "The Elephant Is Slow To Mate"
PERFORMER "Alessio Riccio"
INDEX 01 00:00:00
FILE "11 - Blind Landing.wav" WAVE
TRACK 11 AUDIO
TITLE "Blind Landing"
PERFORMER "Alessio Riccio"
INDEX 01 00:00:00
FILE "12 - Segregate.wav" WAVE
TRACK 12 AUDIO
TITLE "Segregate"
PERFORMER "Alessio Riccio"
INDEX 01 00:00:00
FILE "13 - Third Narrow Passage.wav" WAVE
TRACK 13 AUDIO
TITLE "Third Narrow Passage"
PERFORMER "Alessio Riccio"
INDEX 01 00:00:00
FILE "14 - Intently.wav" WAVE
TRACK 14 AUDIO
TITLE "Intently"
PERFORMER "Alessio Riccio"
INDEX 01 00:00:00
FILE "15 - Fourth Narrow Passage.wav" WAVE
TRACK 15 AUDIO
TITLE "Fourth Narrow Passage"
PERFORMER "Alessio Riccio"
INDEX 01 00:00:00
FILE "16 - Bewitched Cloister.wav" WAVE
TRACK 16 AUDIO
TITLE "Bewitched Cloister"
PERFORMER "Alessio Riccio"
INDEX 01 00:00:00
FILE "17 - Whales Weep Not!.wav" WAVE
TRACK 17 AUDIO
TITLE "Whales Weep Not!"
PERFORMER "Alessio Riccio"
INDEX 01 00:00:00
FILE "18 - In The Black Room.wav" WAVE
TRACK 18 AUDIO
TITLE "In The Black Room"
PERFORMER "Alessio Riccio"
INDEX 01 00:00:00
FILE "19 - Ellipsoid.wav" WAVE
TRACK 19 AUDIO
TITLE "Ellipsoid"
PERFORMER "Alessio Riccio"
INDEX 01 00:00:00
FILE "20 - Lynching.wav" WAVE
TRACK 20 AUDIO
TITLE "Lynching"
PERFORMER "Alessio Riccio"
INDEX 01 00:00:00
FILE "21 - Butterfly.wav" WAVE
TRACK 21 AUDIO
TITLE "Butterfly"
PERFORMER "Alessio Riccio"
INDEX 01 00:00:00
FILE "22 - White Ants And Worms.wav" WAVE
TRACK 22 AUDIO
TITLE "White Ants And Worms"
PERFORMER "Alessio Riccio"
INDEX 01 00:00:00
FILE "23 - Ghosts - Part One- Assault , Part Two- Vodou.wav" WAVE
TRACK 23 AUDIO
TITLE "Ghosts - Part One: Assault / Part Two: Vodou"
PERFORMER "Alessio Riccio"
INDEX 01 00:00:00
FILE "24 - Retreat.wav" WAVE
TRACK 24 AUDIO
TITLE "Retreat"
PERFORMER "Alessio Riccio"
INDEX 01 00:00:00
 
Лог проверки качества
d:\>d:\aucdtect -d/-m0 d:\zzz\*.wav
auCDtect: CD records authenticity detector, version 0.8.2
Copyright (c) 2004 Oleg Berngardt. All rights reserved.
Copyright (c) 2004 Alexander Djourik. All rights reserved.
------------------------------------------------------------
Processing file: [01. Impermanence.wav]
------------------------------------------------------------
This track looks like CDDA with probability 100%
------------------------------------------------------------
Processing file: [02. The Flight.wav]
------------------------------------------------------------
This track looks like CDDA with probability 100%
------------------------------------------------------------
Processing file: [03. Morgon - Kara.wav]
------------------------------------------------------------
This track looks like CDDA with probability 100%
------------------------------------------------------------
Processing file: [04. First Narrow Passage.wav]
------------------------------------------------------------
This track looks like CDDA with probability 100%
------------------------------------------------------------
Processing file: [05. Screeching.wav]
------------------------------------------------------------
This track looks like CDDA with probability 62%
------------------------------------------------------------
Processing file: [06. Fear.wav]
------------------------------------------------------------
This track looks like CDDA with probability 100%
------------------------------------------------------------
Processing file: [07. Symptoms.wav]
------------------------------------------------------------
This track looks like CDDA with probability 100%
------------------------------------------------------------
Processing file: [08. Second Narrow Passage.wav]
------------------------------------------------------------
This track looks like CDDA with probability 99%
------------------------------------------------------------
Processing file: [09. Allured.wav]
------------------------------------------------------------
This track looks like CDDA with probability 100%
------------------------------------------------------------
Processing file: [10. The Elephant Is Slow To Mate.wav]
------------------------------------------------------------
This track looks like CDDA with probability 100%
------------------------------------------------------------
Processing file: [11. Blind Landing.wav]
------------------------------------------------------------
This track looks like CDDA with probability 100%
------------------------------------------------------------
Processing file: [12. Segregate.wav]
------------------------------------------------------------
This track looks like CDDA with probability 100%
------------------------------------------------------------
Processing file: [13. Third Narrow Passage.wav]
------------------------------------------------------------
This track looks like CDDA with probability 100%
------------------------------------------------------------
Processing file: [14. Intently.wav]
------------------------------------------------------------
This track looks like CDDA with probability 100%
------------------------------------------------------------
Processing file: [15. Fourth Narrow Passage.wav]
------------------------------------------------------------
This track looks like CDDA with probability 100%
------------------------------------------------------------
Processing file: [16. Bewitched Cloister.wav]
------------------------------------------------------------
This track looks like CDDA with probability 100%
------------------------------------------------------------
Processing file: [17. Whales Weep Not!.wav]
------------------------------------------------------------
This track looks like CDDA with probability 100%
------------------------------------------------------------
Processing file: [18. In The Black Room.wav]
------------------------------------------------------------
This track looks like CDDA with probability 100%
------------------------------------------------------------
Processing file: [19. Ellipsoid.wav]
------------------------------------------------------------
This track looks like CDDA with probability 100%
------------------------------------------------------------
Processing file: [20. Lynching.wav]
------------------------------------------------------------
This track looks like CDDA with probability 99%
------------------------------------------------------------
Processing file: [21. Butterfly.wav]
------------------------------------------------------------
This track looks like MPEG with probability 93%
------------------------------------------------------------
Processing file: [22. White Ants And Worms.wav]
------------------------------------------------------------
This track looks like CDDA with probability 100%
------------------------------------------------------------
Processing file: [23. Ghosts - Part One- Assault - Part Two- Vodou.wav]
------------------------------------------------------------
This track looks like CDDA with probability 100%
------------------------------------------------------------
Processing file: [24. Retreat.wav]
------------------------------------------------------------
This track looks like CDDA with probability 100%
------------------------------------------------------------
Final Conclusion:
------------------------------------------------------------
These tracks looks like CDDA with probability 100%
Доп. информация:
 
Album Info & Downtown Music Gallery Review
(A. Riccio) - 1,3,4,5,6,7,8,9,10,11,12,13,14,15,16,17,18,20,21,22,24
(A. Riccio, F. Simionato) - 2,19
(A. Riccio, F. Simionato, G. Castellano) - 23
Sampled source material from Lorenzo Brusci, Andrea De Luca, Fred Frith, Charles Ives, Ikue Mori and Sarah Peebles
Lyrics from 10. and 21. by D.H. Lawrence
3. is a traditional fairytale from Buriat people (Siberia)
Sound sculptures Stallychimes, Shellchimes and Gong Sculpture No. 11 by Steve Hubback
Produced by Alessio Riccio
Work in progress realized at Plastic Sun Studio - Firenze, Italy and completed during September 2003
Recorded by Guido Melis, Lorenzo Desiati, Alberto Mantellassi and Alessio Riccio
Mixed, edited and mastered by Guido Melis
Computer artworks by Marco Martini
Graphics by Alexander Neuwahl
I am always amazed when a musician I've never or rarely heard of hands me his disc(s) and it turns out to be some long lost treasure. Thus is the case with Italian drum wiz Alessio Riccio, who stopped in our store last month and gave us five discs of various collaborations with musicians known and unknown (to me). Besides drums, percussion and tapes, Alessio plays something called The Metalanguage Unit, a sonorous sound sculpture. Besides the two illustrious downtowners listed above, the only other name I am familiar with is pianist Stefano Battaglia, who has records on Splasch. The music is lusciously recorded and well balanced. Spacious guitars, percussion, odd samples of radio broadcasts and other disembodied voices, minimal narration, piano give way to tight sections of intriguing jazz/prog/rock. Both female vocalists have warm voices, sing sounds without lyrics and are used just to enhance occasional segments. At nearly 73 minutes, this is indeed a grand effort that is fascinating throughout. Bravo, Alessio and his well-chosen cast of talented characters! - Bruce Lee Gallanter, Downtown Music Gallery
 
Состав
Alessio Riccio: natural and processed stallychimes (1), grouped and altered samples (1,5,6,9,11,14,16,18,19,20,22,23,24), shellchimes (1), chains (1), drums (2,3,4,8,12,13,15,17,20,21,22,23), backing vocals (2), manipulated samples (2,3,7), water drums (2,19,23), congas (2), cowbells (2), woods (2,6,19,23), live loops (4,8,13,15), tortured chimes (5), manipulated tapes (6,12,23), metals (6,19), noises (6,9,14,23), gong sculpture No. 11 (7,14,18,19,23), bellchimes (9), pod shaker (11,18,19,23), small shaker (11), tortured shellchimes (16), processed antique cymbals (16), stallychimes (18), randomized dumbeks (19), selfmade shakers (22,23), antique cymbals (22,23), toms (23), litophone (23), homekeys (24), plastic bag (24)
Nuccio D'Angelo: classic guitar (1,24)
Elliott Sharp: pedal steel (1,16,18,22,23), electric guitar (5,7,8,9,11,13,14,18,20), soprano sax (5,24)
Francesco Simionato: keyboards programming (2,19,23)
Stefano Battaglia: piano (2,6,21,23)
Rossella Ruini: lead and backing vocals (2)
Achille Succi: sax solo (2), alto sax (4,10,15)
Giacomo Castellano: electric guitar / guitar noises and effects (2), electric and acoustic guitar (23)
Renato Cordovani: alto sax solo (2)
Luca Marianini: flugelhorn (2)
Marco Ortolani: clarinets (2)
Jeff Phillips: narration (3,10,17,21)
Tim Berne: alto sax (12,19,20)
Guido Melis: electric bass (23)
Diana Torto: vocals (23)
По всем вопросам пишите личное сообщение пользователю M0p94ok.
06:01
160
Нет комментариев. Ваш будет первым!