Вы используете незарегистрированную версию компонента "Вкладки"!

Поиск

(Avant-Garde Jazz, Free Improvisation, Spool) [CD] Fred Frith, Anne Bourne, John Oswald - Dearness - 2002, FLAC (tracks+.cue), lossless

(Avant-Garde Jazz, Free Improvisation, Spool) [CD] Fred Frith, Anne Bourne, John Oswald - Dearness - 2002, FLAC (tracks+.cue), lossless
Треклист:
Fred Frith, Anne Bourne, John Oswald / Dearness
Жанр: Avant-Garde Jazz, Free Improvisation, Spool
Носитель: CD
Страна-производитель диска: Canada
Год издания: 2002
Издатель (лейбл): Spool
Номер по каталогу: SPL116 / LINE 16
Страна исполнителя (группы): International
Аудиокодек: FLAC (*.flac)
Тип рипа: tracks+.cue
Битрейт аудио: lossless
Продолжительность: 45:52
Источник (релизер): свой фирменный диск
Наличие сканов в содержимом раздачи:
Треклист:
1. A Walk Is An Adventure
2. Three Hundred Ears And An Ocean
3. Lower Flower
 
Лог создания рипа
Exact Audio Copy V1.0 beta 3 from 29. August 2011
EAC extraction logfile from 11. September 2014, 22:28
Fred Frith, Anne Bourne, John Oswald / Dearness
Used drive : PIONEER DVD-RW DVR-115D Adapter: 0 ID: 0
Read mode : Secure
Utilize accurate stream : Yes
Defeat audio cache : Yes
Make use of C2 pointers : No
Read offset correction : 48
Overread into Lead-In and Lead-Out : No
Fill up missing offset samples with silence : Yes
Delete leading and trailing silent blocks : No
Null samples used in CRC calculations : Yes
Used interface : Installed external ASPI interface
Gap handling : Appended to previous track
Used output format : User Defined Encoder
Selected bitrate : 768 kBit/s
Quality : High
Add ID3 tag : No
Command line compressor : C:\Program Files\Exact Audio Copy\Flac\flac.exe
Additional command line options : -6 -V -T "ARTIST=%artist%" -T "TITLE=%title%" -T "ALBUM=%albumtitle%" -T "DATE=%year%" -T "TRACKNUMBER=%tracknr%" -T "GENRE=%genre%" -T "COMMENT=%comment%" -T "BAND=%albuminterpret%" -T "COMPOSER=%composer%" %haslyrics%--tag-from-file=LYRICS="%lyricsfile%"%haslyrics% -T "DISCNUMBER=%cdnumber%" -T "TOTALDISCS=%totalcds%" -T "TOTALTRACKS=%numtracks%" %hascover%--picture="%coverfile%"%hascover% %source% -o %dest%
TOC of the extracted CD
Track | Start | Length | Start sector | End sector
---------------------------------------------------------
1 | 0:00.00 | 38:40.25 | 0 | 174024
2 | 38:40.25 | 2:00.68 | 174025 | 183092
3 | 40:41.18 | 5:11.02 | 183093 | 206419
Track 1
Filename D:\zzz\01 - A Walk Is An Adventure.wav
Pre-gap length 0:00:02.00
Peak level 100.0 %
Extraction speed 6.3 X
Track quality 99.9 %
Test CRC 4A09C0D8
Copy CRC 4A09C0D8
Accurately ripped (confidence 1) [15FAFF6B] (AR v2)
Copy OK
Track 2
Filename D:\zzz\02 - Three Hundred Ears And An Ocean.wav
Pre-gap length 0:00:00.74
Peak level 97.7 %
Extraction speed 6.3 X
Track quality 100.0 %
Test CRC 67D59967
Copy CRC 67D59967
Accurately ripped (confidence 1) [C52B4618] (AR v2)
Copy OK
Track 3
Filename D:\zzz\03 - Lower Flower.wav
Peak level 97.7 %
Extraction speed 7.6 X
Track quality 100.0 %
Test CRC 9530C0DF
Copy CRC 9530C0DF
Cannot be verified as accurate (confidence 1) [0D4E4DD8], AccurateRip returned [C938F94B] (AR v2)
Copy OK
2 track(s) accurately ripped
1 track(s) could not be verified as accurate
Some tracks could not be verified as accurate
No errors occurred
End of status report
==== Log checksum 0C1F2AB5BADCB24DC895B3BD3CAD1FE6CBD99A2C248980A8AC7742FC1185E90B ====
 
Содержание индексной карты (.CUE)
REM GENRE "Free Improvisation"
REM DATE 2002
REM DISCID 180AC003
REM COMMENT "ExactAudioCopy v1.0b3"
PERFORMER "Fred Frith, Anne Bourne, John Oswald"
TITLE "Dearness"
FILE "01 - A Walk Is An Adventure.wav" WAVE
TRACK 01 AUDIO
TITLE "A Walk Is An Adventure"
PERFORMER "Fred Frith, Anne Bourne, John Oswald"
FLAGS DCP
INDEX 01 00:00:00
TRACK 02 AUDIO
TITLE "Three Hundred Ears And An Ocean"
PERFORMER "Fred Frith, Anne Bourne, John Oswald"
FLAGS DCP
INDEX 00 38:39:26
FILE "02 - Three Hundred Ears And An Ocean.wav" WAVE
INDEX 01 00:00:00
FILE "03 - Lower Flower.wav" WAVE
TRACK 03 AUDIO
TITLE "Lower Flower"
PERFORMER "Fred Frith, Anne Bourne, John Oswald"
FLAGS DCP
INDEX 01 00:00:00
 
Лог проверки качества
d:\>d:\aucdtect -d/-m0 d:\zzz\*.wav
auCDtect: CD records authenticity detector, version 0.8.2
Copyright (c) 2004 Oleg Berngardt. All rights reserved.
Copyright (c) 2004 Alexander Djourik. All rights reserved.
------------------------------------------------------------
Processing file: [01. A Walk Is An Adventure.wav]
------------------------------------------------------------
This track looks like CDDA with probability 99%
------------------------------------------------------------
Processing file: [02. Three Hundred Ears And An Ocean.wav]
------------------------------------------------------------
This track looks like CDDA with probability 100%
------------------------------------------------------------
Processing file: [03. Lower Flower.wav]
------------------------------------------------------------
This track looks like CDDA with probability 100%
------------------------------------------------------------
Final Conclusion:
------------------------------------------------------------
These tracks looks like CDDA with probability 100%
Доп. информация:
 
Album Info & AMG Review
Recorded live at the Rivoli, Toronto in August 1998
Concert produced by Rough Idea
Recording facilitated by Phil Strong
Mastered by Myles Boisen at Headless Buddha Mastering Labs, Oakland
Cover photo: Heike Liss
Special thanks to Ron Gaskin
Dedicated to Willa, with love
Cellist Anne Bourne is best known for her appearances on albums by Jane Siberry, Loreena McKennitt, and Holly Cole. Her activities as a free improviser have been documented only sporadically. Dearness puts her between two long-runners on the avant-garde circuit: Canadian saxophonist John Oswald and British guitarist Fred Frith. This session was recorded live in August 1998, but came out only four years later. It is not particularly strong, especially if one looks at it from Frith's ample discography, but it still has its shining moments. The album contains three pieces, but the first one accounts for 39 of the 46 minutes it lasts. Bourne leads the way most of the time, either with her deep cello drones, soaring instant melodies, or dreamy vocalizations. Frith provides textures, lightly hammering the strings of his electric guitar, occasionally shifting to long notes faded in with a volume pedal, and even getting into a straight-away solo at the end of the first piece. He also joins in on vocals. Oswald remains very quiet throughout, seemingly unassuming but providing a backdrop of quiet staccato blurps and clicks (much like what he was doing at the time in CCMC -- see aCCoMpliCes). It makes Dearness a mostly ambient adventure. "Three Hundred Ears and an Ocean" sparks a few flames, with Frith and Oswald getting excited and lively. Audience noises get in the way of what sounds at times like an informal meeting: good-humored and lacking a bit of discipline. It must have been a good concert, but on disc it lacks challenge.
 
Состав
Fred Frith: guitar, voice
Anne Bourne: cello, voice
John Oswald: alto sax, voice
По всем вопросам пишите личное сообщение пользователю M0p94ok.
06:00
216
Нет комментариев. Ваш будет первым!