Вы используете незарегистрированную версию компонента "Вкладки"!

Поиск

(Avant-Garde Jazz, Percussion Music, Electroacoustic) [CD] Alessio Riccio (feat. Gianluca Petrella & Michel Godard) - (In)natural Rhythms - 2002, FLAC (tracks+.cue), lossless

(Avant-Garde Jazz, Percussion Music, Electroacoustic) [CD] Alessio Riccio (feat. Gianluca Petrella & Michel Godard) - (In)natural Rhythms - 2002, FLAC (tracks+.cue), lossless
Треклист:
Alessio Riccio / (In)natural Rhythms
Жанр: Avant-Garde Jazz, Percussion Music, Electroacoustic
Носитель: CD
Страна-производитель диска: Italy
Год издания: 2002
Издатель (лейбл): Unorthodox Recordings
Номер по каталогу: Unhx/003/CD
Страна исполнителя (группы): Italy
Аудиокодек: FLAC (*.flac)
Тип рипа: tracks+.cue
Битрейт аудио: lossless
Продолжительность: 49:31
Источник (релизер): свой фирменный диск
Наличие сканов в содержимом раздачи:
Треклист:
1. Ancestors Dance Part 1: Divination 9:15
2. Rain 5:51
3. Quietness Path 1:08
4. Shrift - Prelude 2:15
5. Water 6:42
6. Monasticism 1:09
7. Divination - Reprise 2:22
8. Wind 5:40
9. Nimeth 1:06
10. Sea 5:10
11. Ancestors Dance Part 2: Shrift 8:26
 
Лог создания рипа
Exact Audio Copy V1.0 beta 3 from 29. August 2011
EAC extraction logfile from 10. September 2014, 20:19
Alessio Riccio / (In)natural Rhythms
Used drive : PIONEER DVD-RW DVR-115D Adapter: 0 ID: 0
Read mode : Secure
Utilize accurate stream : Yes
Defeat audio cache : Yes
Make use of C2 pointers : No
Read offset correction : 48
Overread into Lead-In and Lead-Out : No
Fill up missing offset samples with silence : Yes
Delete leading and trailing silent blocks : No
Null samples used in CRC calculations : Yes
Used interface : Installed external ASPI interface
Gap handling : Appended to previous track
Used output format : User Defined Encoder
Selected bitrate : 768 kBit/s
Quality : High
Add ID3 tag : No
Command line compressor : C:\Program Files\Exact Audio Copy\Flac\flac.exe
Additional command line options : -6 -V -T "ARTIST=%artist%" -T "TITLE=%title%" -T "ALBUM=%albumtitle%" -T "DATE=%year%" -T "TRACKNUMBER=%tracknr%" -T "GENRE=%genre%" -T "COMMENT=%comment%" -T "BAND=%albuminterpret%" -T "COMPOSER=%composer%" %haslyrics%--tag-from-file=LYRICS="%lyricsfile%"%haslyrics% -T "DISCNUMBER=%cdnumber%" -T "TOTALDISCS=%totalcds%" -T "TOTALTRACKS=%numtracks%" %hascover%--picture="%coverfile%"%hascover% %source% -o %dest%
TOC of the extracted CD
Track | Start | Length | Start sector | End sector
---------------------------------------------------------
1 | 0:00.00 | 9:17.10 | 0 | 41784
2 | 9:17.10 | 5:53.48 | 41785 | 68307
3 | 15:10.58 | 1:10.50 | 68308 | 73607
4 | 16:21.33 | 2:17.61 | 73608 | 83943
5 | 18:39.19 | 6:44.51 | 83944 | 114294
6 | 25:23.70 | 1:11.12 | 114295 | 119631
7 | 26:35.07 | 2:24.60 | 119632 | 130491
8 | 28:59.67 | 5:42.56 | 130492 | 156197
9 | 34:42.48 | 1:08.15 | 156198 | 161312
10 | 35:50.63 | 5:12.64 | 161313 | 184776
11 | 41:03.52 | 8:26.72 | 184777 | 222798
Track 1
Filename D:\zzz\01 - Ancestors Dance Part 1- Divination.wav
Pre-gap length 0:00:02.00
Peak level 100.0 %
Extraction speed 4.9 X
Track quality 100.0 %
Test CRC 37D933B6
Copy CRC 37D933B6
Track not present in AccurateRip database
Copy OK
Track 2
Filename D:\zzz\02 - Rain.wav
Pre-gap length 0:00:02.00
Peak level 100.0 %
Extraction speed 5.6 X
Track quality 100.0 %
Test CRC C3D40D06
Copy CRC C3D40D06
Track not present in AccurateRip database
Copy OK
Track 3
Filename D:\zzz\03 - Quietness Path.wav
Pre-gap length 0:00:02.00
Peak level 100.0 %
Extraction speed 4.3 X
Track quality 100.0 %
Test CRC 4E950BE0
Copy CRC 4E950BE0
Track not present in AccurateRip database
Copy OK
Track 4
Filename D:\zzz\04 - Shrift - Prelude.wav
Pre-gap length 0:00:02.00
Peak level 100.0 %
Extraction speed 5.2 X
Track quality 100.0 %
Test CRC 8D074493
Copy CRC 8D074493
Track not present in AccurateRip database
Copy OK
Track 5
Filename D:\zzz\05 - Water.wav
Pre-gap length 0:00:02.00
Peak level 68.2 %
Extraction speed 6.0 X
Track quality 99.9 %
Test CRC 34FD8B52
Copy CRC 34FD8B52
Track not present in AccurateRip database
Copy OK
Track 6
Filename D:\zzz\06 - Monasticism.wav
Pre-gap length 0:00:02.00
Peak level 100.0 %
Extraction speed 4.9 X
Track quality 100.0 %
Test CRC AA347D29
Copy CRC AA347D29
Track not present in AccurateRip database
Copy OK
Track 7
Filename D:\zzz\07 - Divination - Reprise.wav
Pre-gap length 0:00:02.00
Peak level 86.4 %
Extraction speed 6.0 X
Track quality 100.0 %
Test CRC 30D495A0
Copy CRC 30D495A0
Track not present in AccurateRip database
Copy OK
Track 8
Filename D:\zzz\08 - Wind.wav
Pre-gap length 0:00:02.00
Peak level 100.0 %
Extraction speed 7.0 X
Track quality 100.0 %
Test CRC BE2DD7F5
Copy CRC BE2DD7F5
Track not present in AccurateRip database
Copy OK
Track 9
Filename D:\zzz\09 - Nimeth.wav
Pre-gap length 0:00:02.00
Peak level 100.0 %
Extraction speed 5.2 X
Track quality 100.0 %
Test CRC 174CE5A2
Copy CRC 174CE5A2
Track not present in AccurateRip database
Copy OK
Track 10
Filename D:\zzz\10 - Sea.wav
Pre-gap length 0:00:02.00
Peak level 100.0 %
Extraction speed 7.3 X
Track quality 100.0 %
Test CRC 9004F995
Copy CRC 9004F995
Track not present in AccurateRip database
Copy OK
Track 11
Filename D:\zzz\11 - Ancestors Dance Part 2- Shrift.wav
Pre-gap length 0:00:02.00
Peak level 100.0 %
Extraction speed 7.5 X
Track quality 99.9 %
Test CRC 86EEFCDE
Copy CRC 86EEFCDE
Track not present in AccurateRip database
Copy OK
None of the tracks are present in the AccurateRip database
No errors occurred
End of status report
==== Log checksum 722AEF3C390091A29796FF75E13FACD0A78D1D5FED25D71ECD61949283109DB1 ====
 
Содержание индексной карты (.CUE)
REM GENRE "Experimental Jazz"
REM DATE 2002
REM DISCID 930B9A0B
REM COMMENT "ExactAudioCopy v1.0b3"
PERFORMER "Alessio Riccio"
TITLE "(In)natural Rhythms"
FILE "01 - Ancestors Dance Part 1- Divination.wav" WAVE
TRACK 01 AUDIO
TITLE "Ancestors Dance Part 1: Divination"
PERFORMER "Alessio Riccio"
INDEX 01 00:00:00
TRACK 02 AUDIO
TITLE "Rain"
PERFORMER "Alessio Riccio"
INDEX 00 09:15:10
FILE "02 - Rain.wav" WAVE
INDEX 01 00:00:00
TRACK 03 AUDIO
TITLE "Quietness Path"
PERFORMER "Alessio Riccio"
INDEX 00 05:51:48
FILE "03 - Quietness Path.wav" WAVE
INDEX 01 00:00:00
TRACK 04 AUDIO
TITLE "Shrift - Prelude"
PERFORMER "Alessio Riccio"
INDEX 00 01:08:50
FILE "04 - Shrift - Prelude.wav" WAVE
INDEX 01 00:00:00
TRACK 05 AUDIO
TITLE "Water"
PERFORMER "Alessio Riccio"
INDEX 00 02:15:61
FILE "05 - Water.wav" WAVE
INDEX 01 00:00:00
TRACK 06 AUDIO
TITLE "Monasticism"
PERFORMER "Alessio Riccio"
INDEX 00 06:42:51
FILE "06 - Monasticism.wav" WAVE
INDEX 01 00:00:00
TRACK 07 AUDIO
TITLE "Divination - Reprise"
PERFORMER "Alessio Riccio"
INDEX 00 01:09:12
FILE "07 - Divination - Reprise.wav" WAVE
INDEX 01 00:00:00
TRACK 08 AUDIO
TITLE "Wind"
PERFORMER "Alessio Riccio"
INDEX 00 02:22:60
FILE "08 - Wind.wav" WAVE
INDEX 01 00:00:00
TRACK 09 AUDIO
TITLE "Nimeth"
PERFORMER "Alessio Riccio"
INDEX 00 05:40:56
FILE "09 - Nimeth.wav" WAVE
INDEX 01 00:00:00
TRACK 10 AUDIO
TITLE "Sea"
PERFORMER "Alessio Riccio"
INDEX 00 01:06:15
FILE "10 - Sea.wav" WAVE
INDEX 01 00:00:00
TRACK 11 AUDIO
TITLE "Ancestors Dance Part 2: Shrift"
PERFORMER "Alessio Riccio"
INDEX 00 05:10:64
FILE "11 - Ancestors Dance Part 2- Shrift.wav" WAVE
INDEX 01 00:00:00
 
Лог проверки качества
d:\>d:\aucdtect -d/-m0 d:\zzz\*.wav
auCDtect: CD records authenticity detector, version 0.8.2
Copyright (c) 2004 Oleg Berngardt. All rights reserved.
Copyright (c) 2004 Alexander Djourik. All rights reserved.
------------------------------------------------------------
Processing file: [01. Ancestors Dance Part 1- Divination.wav]
------------------------------------------------------------
This track looks like CDDA with probability 100%
------------------------------------------------------------
Processing file: [02. Rain.wav]
------------------------------------------------------------
This track looks like CDDA with probability 100%
------------------------------------------------------------
Processing file: [03. Quietness Path.wav]
------------------------------------------------------------
This track looks like CDDA with probability 100%
------------------------------------------------------------
Processing file: [04. Shrift - Prelude.wav]
------------------------------------------------------------
This track looks like CDDA with probability 100%
------------------------------------------------------------
Processing file: [05. Water.wav]
------------------------------------------------------------
This track looks like CDDA with probability 100%
------------------------------------------------------------
Processing file: [06. Monasticism.wav]
------------------------------------------------------------
This track looks like CDDA with probability 99%
------------------------------------------------------------
Processing file: [07. Divination - Reprise.wav]
------------------------------------------------------------
This track looks like CDDA with probability 100%
------------------------------------------------------------
Processing file: [08. Wind.wav]
------------------------------------------------------------
This track looks like CDDA with probability 100%
------------------------------------------------------------
Processing file: [09. Nimeth.wav]
------------------------------------------------------------
This track looks like CDDA with probability 94%
------------------------------------------------------------
Processing file: [10. Sea.wav]
------------------------------------------------------------
This track looks like CDDA with probability 100%
------------------------------------------------------------
Processing file: [11. Ancestors Dance Part 2- Shrift.wav]
------------------------------------------------------------
This track looks like CDDA with probability 99%
------------------------------------------------------------
Final Conclusion:
------------------------------------------------------------
These tracks looks like CDDA with probability 100%
Доп. информация:
 
Album Info & Downtown Music Gallery Review
(A. Riccio)
Produced by Alessio Riccio
Executive producers: Alessio Riccio for Alessio Riccio AVM and Luigi Tronci for UFIP Italia
Work in progress realized at Plastic Sun Studio - Firenze, Italy between May 1998 (recording) and December 1999 (mastering)
Recorded by Guido Melis, Lorenzo Desiati and Alessio Riccio
Mixed, edited and mastered by Guido Melis
Computer artworks by Marco Martini
Graphics by Alexander Neuwahl
Alessio Riccio plays exclusively The Metalanguage Unit, a sonorous sculpture conceived and carried out in contribution with Ufip and Drum Sound
It is fruit of a research on timbre, matter, ergonomy and language that, due to a vast spiritual process, inserts itself in the field of the Art of Gesture, uniting acoustic and electronic, sound and space, creativity and accuracy, interpretation and improvisation
This one features Alessio Riccio - drums, percussion, the 'Metalanguage Unit' (a sound sculpture), samples & tapes; with Michel Godard - tuba, Gianluca Petrella - trombone, Mirko Guerrini - flutes, Dianan Torto and Andrea Figallo vocals. We know of tuba great Michel Godard from his numerous appearances on Enja discs, especially his work with Rabih Abou-Khalil. I am unfamiliar with the trombone player, flutist and the vocalists as well, although everyone's playing is marvelous throughout. The music has most mysterious quality, the swell vocals are nicely layered and not made up of words, including some cool vocal drum sounds. Alessio's strong, solid and creative drumming is often at the center of most of these fine pieces, with either some great trombone, tuba or flute soloing added. Both Michel Godard on tuba and Gianluca Petrella on trombone play a number on inspired solos, no doubt we will be hearing from them again. 50 minutes and completely engaging from beginning to the end. - Bruce Lee Gallanter, Downtown Music Gallery
 
Состав
Alessio Riccio: drums (1,2,4,5,6,7,8,9,10,11), cowbells (1,2,11), fire estinguisher (1,11), cupbell (1,11), backing vocals (1,11), clapping (1,11), manipulated tapes (1,2,4,5,7,8,10,11), samples* (1,11), metal octobans (2,3), wood block (10), three-tones agogo (10)
Gianluca Petrella: trombone (1,3,5,8,9,10)
Mirko Guerrini: moezinho bass flute (1), pakistan flutes (4,7,11), moezinho soprano flutes (11)
Diana Torto: lead and backing vocals (1), vocals (2,8), backing vocals (11)
Andrea Figallo: backing vocals (1,11)
Guido Melis: clapping (1,11)
Lorenzo Desiati: clapping (1,11)
Michel Godard: tuba (2,5,6,8,9,11)
Alessandro Riccio: narration (5)
По всем вопросам пишите личное сообщение пользователю M0p94ok.
06:00
153
Нет комментариев. Ваш будет первым!