Вы используете незарегистрированную версию компонента "Вкладки"!

Поиск

(Free Jazz, Free Improvisation) [CD] Masahiko Togashi Quartet - We Now Create - 1969 (2006 Japan Edition), FLAC (tracks+.cue), lossless

Треклист:
Masahiko Togashi Quartet - We Now Create
Жанр: Free Jazz, Free Improvisation
Носитель: CD
Страна-производитель диска: Япония
Год издания: 2006
Издатель (лейбл): Bridge
Номер по каталогу: BRIDGE-048
Аудиокодек: FLAC (*.flac)
Тип рипа: tracks+.cue
Битрейт аудио: lossless
Продолжительность: 37:31
Источник (релизер): uaxuctum (what)
Наличие сканов в содержимом раздачи: нет
Треклист:
01. Variations on a Theme of "Feed-Back" (11:58)
02. Invitation to "Corn Pipe" Dance (7:13)
03. Artistry in Percussions (9:24)
04. Fantasy for Strings (8:56)
Состав:
Masahiko Togashi - drums
Mototeru Takagi - tenor saxophone, cornpipe
Masayuki Takayanagi - guitar
Motoharu Yoshizawa - bass, cello
All music by the Togashi Masahiko Quartet.
Recorded at Tokyo Studio Center on May 23, 1969.
 
Лог создания рипа
Exact Audio Copy V1.0 beta 3 from 29. August 2011
EAC extraction logfile from 27. May 2014, 11:05
Masahiko Togashi Quartet / We Now Create
Used drive : ATAPI iHOS104 Adapter: 1 ID: 1
Read mode : Secure
Utilize accurate stream : Yes
Defeat audio cache : Yes
Make use of C2 pointers : No
Read offset correction : 696
Overread into Lead-In and Lead-Out : No
Fill up missing offset samples with silence : Yes
Delete leading and trailing silent blocks : No
Null samples used in CRC calculations : Yes
Used interface : Native Win32 interface for Win NT & 2000
Gap handling : Appended to previous track
Used output format : User Defined Encoder
Selected bitrate : 1024 kBit/s
Quality : High
Add ID3 tag : No
Command line compressor : C:\Program Files (x86)\Exact Audio Copy\Flac\flac.exe
Additional command line options : -8 -V -T "ARTIST=%artist%" -T "TITLE=%title%" -T "ALBUM=%albumtitle%" -T "DATE=%year%" -T "TRACKNUMBER=%tracknr%" -T "GENRE=%genre%" -T "PERFORMER=%albuminterpret%" -T "COMPOSER=%composer%" %haslyrics%--tag-from-file=LYRICS="%lyricsfile%"%haslyrics% -T "ALBUMARTIST=%albumartist%" -T "DISCNUMBER=%cdnumber%" -T "TOTALDISCS=%totalcds%" -T "TOTALTRACKS=%numtracks%" -T "COMMENT=%comment%" %source% -o %dest%
TOC of the extracted CD
Track | Start | Length | Start sector | End sector
---------------------------------------------------------
1 | 0:00.00 | 11:57.70 | 0 | 53844
2 | 11:57.70 | 7:12.50 | 53845 | 86294
3 | 19:10.45 | 9:24.22 | 86295 | 128616
4 | 28:34.67 | 8:55.58 | 128617 | 168799
Track 1
Filename C:\EAC Rips\Masahiko Togashi Quartet - We Now Create (1969) [FLAC]\01 - Variations On A Theme Of ''Feed-Back''.wav
Pre-gap length 0:00:02.00
Peak level 100.0 %
Extraction speed 1.3 X
Track quality 100.0 %
Test CRC E762C992
Copy CRC E762C992
Accurately ripped (confidence 1) [AE3DAD1E] (AR v1)
Copy OK
Track 2
Filename C:\EAC Rips\Masahiko Togashi Quartet - We Now Create (1969) [FLAC]\02 - Invitation To ''Corn Pipe'' Dance.wav
Pre-gap length 0:00:02.49
Peak level 100.0 %
Extraction speed 1.6 X
Track quality 100.0 %
Test CRC 2C90E25F
Copy CRC 2C90E25F
Accurately ripped (confidence 1) [35A7F1E5] (AR v1)
Copy OK
Track 3
Filename C:\EAC Rips\Masahiko Togashi Quartet - We Now Create (1969) [FLAC]\03 - Artistry Of Percussions.wav
Pre-gap length 0:00:02.49
Peak level 100.0 %
Extraction speed 1.8 X
Track quality 100.0 %
Test CRC ECAFDE24
Copy CRC ECAFDE24
Accurately ripped (confidence 1) [D8DD80A7] (AR v1)
Copy OK
Track 4
Filename C:\EAC Rips\Masahiko Togashi Quartet - We Now Create (1969) [FLAC]\04 - Fantasy For Strings.wav
Pre-gap length 0:00:02.48
Peak level 100.0 %
Extraction speed 2.0 X
Track quality 100.0 %
Test CRC 0770A664
Copy CRC 0770A664
Accurately ripped (confidence 1) [5423ED3C] (AR v1)
Copy OK
All tracks accurately ripped
No errors occurred
End of status report
---- CUETools DB Plugin V2.1.3
[CTDB TOCID: SCy8H6KcxeZCuSEhEA42r7YS0pg-] disk not present in database, Submit result: SCy8H6KcxeZCuSEhEA42r7YS0pg- has been uploaded
==== Log checksum AED982F314DC31D7A900FFF35CB42FB54BD28E200D591A65490B4A9A488AD30F ====
 
Содержание индексной карты (.CUE)
REM GENRE Jazz
REM DATE 1969
REM DISCID 2B08CA04
REM COMMENT "ExactAudioCopy v1.0b3"
CATALOG 4988002209118
PERFORMER "Masahiko Togashi"
TITLE "We Now Create"
FILE "01 - Variations on a Theme of 'Feed-Back'.wav" WAVE
TRACK 01 AUDIO
TITLE "Variations on a Theme of 'Feed-Back'"
PERFORMER "Masahiko Togashi"
ISRC JPVI06900020
INDEX 01 00:00:00
TRACK 02 AUDIO
TITLE "Invitation to 'Corn Pipe' Dance"
PERFORMER "Masahiko Togashi"
ISRC JPVI06900030
INDEX 00 11:55:33
FILE "02 - Invitation to 'Corn Pipe' Dance.wav" WAVE
INDEX 01 00:00:00
TRACK 03 AUDIO
TITLE "Artistry in Percussions"
PERFORMER "Masahiko Togashi"
ISRC JPVI06900040
INDEX 00 07:10:13
FILE "03 - Artistry in Percussions.wav" WAVE
INDEX 01 00:00:00
TRACK 04 AUDIO
TITLE "Fantasy for Strings"
PERFORMER "Masahiko Togashi"
ISRC JPVI06900050
INDEX 00 09:21:61
FILE "04 - Fantasy for Strings.wav" WAVE
INDEX 01 00:00:00
 
Отчет CUETools
[CUETools log; Date: 04.11.2014 21:36:16; Version: 2.1.5]
[CTDB TOCID: SCy8H6KcxeZCuSEhEA42r7YS0pg-] found.
Track | CTDB Status
1 | (1/1) Accurately ripped
2 | (1/1) Accurately ripped
3 | (1/1) Accurately ripped
4 | (1/1) Accurately ripped
[AccurateRip ID: 0006ad35-001a5274-2b08ca04] found.
Track [ CRC | V2 ] Status
01 [ae3dad1e|2a071380] (1+0/2) Accurately ripped
02 [35a7f1e5|8ce07c26] (1+0/2) Accurately ripped
03 [d8dd80a7|e40d43a7] (1+0/2) Accurately ripped
04 [5423ed3c|d535b927] (1+0/2) Accurately ripped
Track Peak [ CRC32 ] [W/O NULL] [ LOG ]
-- 100,0 [8D3E07F1] [257786F8]
01 100,0 [E762C992] [101F0C03] CRC32
02 100,0 [2C90E25F] [0EF0B252] CRC32
03 100,0 [ECAFDE24] [5A63C0D9] CRC32
04 100,0 [0770A664] [932B1CB8] CRC32
 
Об альбоме (сборнике)
So I’ve been reading E. Taylor Atkin’s Blue Nippon, a fascinating book that provides a history of jazz in Japan from its inception (around 1925) to the 80s, delving into concepts such as musical authenticity and cultural identity that are easily applicable to my own experiences with Australian Jazz. The book references many records that I have had to chase up to fill in the gaps, one of which being Masahiko Togashi’s We Now Create, released in 1969, well into Japan’s free-jazz boom of the 60s. Togashi, a prodigy drummer rendered paraplegic in an accident, experimented deeply with rhythm and texture, using a mixture of traditional Japanese percussion and Western orchestral instruments. Togashi was a major exponent in the movement during the 60s pursuing the notion of a unique, ‘Japanese’ jazz style, so the meaning of the album title, I think, is self-evident. Many Japanese musicians during this time sought to break free from the stereotype of Japanese jazz as derivative and unoriginal. A quote from Atkin’s book turned me onto Togashi:
In Oriental thought because there is existence [有(yuu)] there is nothingness [無(mu)]. Because there is nothingness there is existence…. So by not playing a sound, you can make a combination of sounds, by making nothingness you create – totally different from Western thinking. So American and Japanese ‘concepts of space’ are different.
-- Togashi

This concept of using silence, or ‘space’ in improvised music, wasn’t particularly new to me, but the new wording intrigued me, so I was curious to hear how Togashi implemented his ‘Oriental’ concept of 無, nothingness into his music.
The opening 2 minutes of the first track – Variations On A Theme of Feed-Back – features a beautiful introduction by Takayanagi, masterfully controlling feedback and balancing dissonance and consonance (will definitely be checking out some of his other work). The track progresses to high-energy improvisation, with Takagi wailing over the group, Togashi sometimes pushing the intensity, sometimes backing off with sparse textural contributions. Yoshizawa alternating between wild dissonant walking and rhythmic arco, with Takayanagi tying it all down with repeated riffs and simple melodies, often being caught up in the energy of the other three.
The other tracks follow the same theme of solo interludes developing into group improvisations. In ‘Artistry in Percussions’ the entire quartet plays percussion, making for some beautiful textures. By far the highlights of this album however, for me, are the sparser moments where each musician has space to themselves to create (here I’ll borrow Togashi’s words) both mu and yu. During the explosive moments of collective improvisation, it seems to me that the musician’s individual voices become less distinct (maybe I’m trying to hard to hear them, unfamiliar as I am with all four musicians). The fourth and final track, Fantasy For Strings, I found to have a perfect balance, with each musician speaking cohesively and thoughtfully.
So could I hear Togashi’s ‘Oriental’ sense of space? Not particularly, although this is the only album of his so far that I’ve heard, so I’ll continue my investigation. What I have learnt, however, is that I’m in love with Masayuki Takanayagi’s guitar playing. Definitely interested to hear some of his projects.
-- nirandasika
По всем вопросам пишите личное сообщение пользователю M0p94ok.
06:04
170
Нет комментариев. Ваш будет первым!