Вы используете незарегистрированную версию компонента "Вкладки"!

Поиск

(Free Jazz, Contemporary Jazz) Fredrik Ljungkvist Quartet - Sonicspace - 1997, FLAC (image+.cue), lossless

(Free Jazz, Contemporary Jazz) Fredrik Ljungkvist Quartet - Sonicspace - 1997, FLAC (image+.cue), lossless
Треклист:
Fredrik Ljungkvist Quartet / Sonicspace
Жанр: Free Jazz, Contemporary Jazz
Страна-производитель диска: Sweden
Год издания: 1997
Издатель (лейбл): Prophone
Номер по каталогу: PCD 036
Аудиокодек: FLAC (*.flac)
Тип рипа: image+.cue
Битрейт аудио: lossless
Продолжительность: 55:10
Источник (релизер): cd
Наличие сканов в содержимом раздачи: нет
Треклист:
1 Oktoberhav 5:30
2 Ougadogo 5:04
3 Stilla 10:37
4 Hon Malar 6:31
5 Symbios 1 & 2 5:04
6 Bolle 4:51
7 Bop About 5:45
8 Vera 5:34
9 Opus 8 1:53
10 Polka Dots and Moonbeams 4:18
 
Лог создания рипа
Exact Audio Copy V1.0 beta 2 from 29. April 2011
EAC extraction logfile from 29. August 2013, 15:12
Fredrik Ljungkvist Quartet / Sonicspace
Used drive : Optiarc DVD RW AD-7170A Adapter: 0 ID: 0
Read mode : Secure
Utilize accurate stream : Yes
Defeat audio cache : Yes
Make use of C2 pointers : No
Read offset correction : 48
Overread into Lead-In and Lead-Out : No
Fill up missing offset samples with silence : Yes
Delete leading and trailing silent blocks : No
Null samples used in CRC calculations : Yes
Used interface : Native Win32 interface for Win NT & 2000
Used output format : User Defined Encoder
Selected bitrate : 320 kBit/s
Quality : High
Add ID3 tag : No
Command line compressor : C:\Program Files\Exact Audio Copy\Flac\flac.exe
Additional command line options : -V -8 -T "Date=%year%" -T "Genre=%genre%" %source%
TOC of the extracted CD
Track | Start | Length | Start sector | End sector
---------------------------------------------------------
1 | 0:00.00 | 5:30.25 | 0 | 24774
2 | 5:30.25 | 5:04.05 | 24775 | 47579
3 | 10:34.30 | 10:37.17 | 47580 | 95371
4 | 21:11.47 | 6:31.40 | 95372 | 124736
5 | 27:43.12 | 5:04.05 | 124737 | 147541
6 | 32:47.17 | 4:51.13 | 147542 | 169379
7 | 37:38.30 | 5:45.05 | 169380 | 195259
8 | 43:23.35 | 5:34.55 | 195260 | 220364
9 | 48:58.15 | 1:53.55 | 220365 | 228894
10 | 50:51.70 | 4:18.60 | 228895 | 248304
Range status and errors
Selected range
Filename K:\ЕАС\Fredrik Ljungkvist Quartet - Sonicspace.wav
Peak level 100.0 %
Extraction speed 1.9 X
Range quality 99.9 %
Test CRC 1874662F
Copy CRC 1874662F
Copy OK
No errors occurred
AccurateRip summary
Track 1 not present in database
Track 2 not present in database
Track 3 not present in database
Track 4 not present in database
Track 5 not present in database
Track 6 not present in database
Track 7 not present in database
Track 8 not present in database
Track 9 not present in database
Track 10 not present in database
None of the tracks are present in the AccurateRip database
End of status report
==== Log checksum 18B1A385071A67B1F989CF7F56F6151FA5BCAAA9B1CD3809A1DD73BF425AE5E9 ====
 
Содержание индексной карты (.CUE)
REM GENRE "Contemporary Jazz"
REM DATE 1997
REM DISCID 820CEE0A
REM COMMENT "ExactAudioCopy v1.0b2"
CATALOG 0000000000000
PERFORMER "Fredrik Ljungkvist Quartet"
TITLE "Sonicspace"
FILE "Fredrik Ljungkvist Quartet - Sonicspace.flac" WAVE
TRACK 01 AUDIO
TITLE "Oktoberhav"
PERFORMER "Fredrik Ljungkvist Quartet"
ISRC SEBAA9703010
INDEX 01 00:00:00
TRACK 02 AUDIO
TITLE "Ougadogo"
PERFORMER "Fredrik Ljungkvist Quartet"
ISRC SEBAA9703020
INDEX 01 05:30:25
TRACK 03 AUDIO
TITLE "Stilla"
PERFORMER "Fredrik Ljungkvist Quartet"
ISRC SEBAA9703030
INDEX 00 10:32:02
INDEX 01 10:34:30
TRACK 04 AUDIO
TITLE "Hon Malar"
PERFORMER "Fredrik Ljungkvist Quartet"
ISRC SEBAA9703040
INDEX 00 21:09:32
INDEX 01 21:11:47
TRACK 05 AUDIO
TITLE "Symbios 1&2"
PERFORMER "Fredrik Ljungkvist Quartet"
ISRC SEBAA9703050
INDEX 00 27:40:67
INDEX 01 27:43:12
TRACK 06 AUDIO
TITLE "Bolle"
PERFORMER "Fredrik Ljungkvist Quartet"
ISRC SEBAA9703060
INDEX 00 32:44:32
INDEX 01 32:47:17
TRACK 07 AUDIO
TITLE "Bop About"
PERFORMER "Fredrik Ljungkvist Quartet"
ISRC SEBAA9703070
INDEX 00 37:35:45
INDEX 01 37:38:30
TRACK 08 AUDIO
TITLE "Vera"
PERFORMER "Fredrik Ljungkvist Quartet"
ISRC SEBAA9703080
INDEX 00 43:20:42
INDEX 01 43:23:35
TRACK 09 AUDIO
TITLE "Opus 8"
PERFORMER "Fredrik Ljungkvist Quartet"
ISRC SEBAA9703090
INDEX 00 48:54:49
INDEX 01 48:58:15
TRACK 10 AUDIO
TITLE "Polkadots and Moonbeams"
PERFORMER "Fredrik Ljungkvist Quartet"
ISRC SEBAA9703100
INDEX 00 50:48:17
INDEX 01 50:51:70
 
Состав
Fredrik Ljungkvist (sax, cl)
Torbjörn Gulz (p)
Filip Augustson (double-b)
Bo Söderberg (ds)
Any questions -> support@pro-jazz.com. По всем вопросам пишите -> support@pro-jazz.com
17:37
212
Нет комментариев. Ваш будет первым!