Вы используете незарегистрированную версию компонента "Вкладки"!

Поиск

(Free Improvisation, CIMP) Kahil El'Zabar's Tri-Factor with Billy Bang & Hamiet Bluiett - The Power - 2000, FLAC (tracks+.cue), lossless

(Free Improvisation, CIMP) Kahil El'Zabar's Tri-Factor with Billy Bang & Hamiet Bluiett - The Power - 2000, FLAC (tracks+.cue), lossless
Треклист:
Kahil El'Zabar's Tri-Factor with Billy Bang & Hamiet Bluiett / The Power
Жанр: Free Improvisation, CIMP
Страна-производитель диска: U.S.A.
Год издания: 2000
Издатель (лейбл): CIMP
Номер по каталогу: #205
Аудиокодек: FLAC (*.flac)
Тип рипа: tracks+.cue
Битрейт аудио: lossless
Продолжительность: 1:04:58
Источник (релизер): Max Monteiro
Наличие сканов в содержимом раздачи: да
Треклист:
01. Space of No Pain (take 2) (Kahil El’Zabar) 6:39
02. Katon (Kahil El’Zabar) 6:42
03. Silent Observations (Billy Bang) 4:42
04. At Play in the Fields of the Lord (Billy Bang) 6:22
05. Contrary Motion (Kahil El’Zabar) 7:47
06. The Power (Hamiet Bluiett) 8:22
07. Moment’s Resolution (Kahil El’Zabar) 4:49
08. A Little Sumpin’ Sumpin’ (Hamiet Bluiett) 7:11
09. Alternate Tuning (Hamiet Bluiett) 2:45
10. Space of No Pain (take 3) (Kahil El’Zabar) 6:43
11. Vocal Improv (Kahil El’Zabar) 2:56
Recorded at The Spirit Room, Rossie, NY, July 26 & 27, 1999.
Kahil El’Zabar – Percussion, Thumb Piano
Hamiet Bluiett – Flute, Bass Sax, Contrabass Sax
Billy Bang – Violin
 
Лог создания рипа
Exact Audio Copy V1.0 beta 3 from 29. August 2011
EAC extraction logfile from 30. August 2013, 17:09
Kahil El'Zabar's Tri-Factor with Billy Bang & Hamiet Bluiett / The Power
Used drive : SlimtypeeNAU508 5 Adapter: 1 ID: 0
Read mode : Secure
Utilize accurate stream : Yes
Defeat audio cache : Yes
Make use of C2 pointers : No
Read offset correction : 6
Overread into Lead-In and Lead-Out : No
Fill up missing offset samples with silence : Yes
Delete leading and trailing silent blocks : No
Null samples used in CRC calculations : Yes
Used interface : Native Win32 interface for Win NT & 2000
Gap handling : Appended to previous track
Used output format : User Defined Encoder
Selected bitrate : 768 kBit/s
Quality : High
Add ID3 tag : No
Command line compressor : C:\Program Files (x86)\Exact Audio Copy\Flac\flac.exe
Additional command line options : -8 -V -T "ARTIST=%artist%" -T "TITLE=%title%" -T "ALBUM=%albumtitle%" -T "DATE=%year%" -T "TRACKNUMBER=%tracknr%" -T "GENRE=%genre%" -T "PERFORMER=%albuminterpret%" -T "COMPOSER=%composer%" %haslyrics%--tag-from-file=LYRICS="%lyricsfile%"%haslyrics% -T "ALBUMARTIST=%albumartist%" -T "DISCNUMBER=%cdnumber%" -T "TOTALDISCS=%totalcds%" -T "TOTALTRACKS=%numtracks%" -T "COMMENT=%comment%" %source% -o %dest%
TOC of the extracted CD
Track | Start | Length | Start sector | End sector
---------------------------------------------------------
1 | 0:00.00 | 6:38.58 | 0 | 29907
2 | 6:38.58 | 6:41.67 | 29908 | 60049
3 | 13:20.50 | 4:42.16 | 60050 | 81215
4 | 18:02.66 | 6:21.52 | 81216 | 109842
5 | 24:24.43 | 7:46.39 | 109843 | 144831
6 | 32:11.07 | 8:22.22 | 144832 | 182503
7 | 40:33.29 | 4:49.36 | 182504 | 204214
8 | 45:22.65 | 7:10.54 | 204215 | 236518
9 | 52:33.44 | 2:45.30 | 236519 | 248923
10 | 55:18.74 | 6:42.50 | 248924 | 279123
11 | 62:01.49 | 2:56.34 | 279124 | 292357
Track 1
Filename C:\EAC rips\01 - Space of No Pain (take 2).wav
Pre-gap length 0:00:02.00
Peak level 100.0 %
Extraction speed 2.4 X
Track quality 100.0 %
Test CRC 296E081B
Copy CRC 296E081B
Cannot be verified as accurate (confidence 1) [19218AA1], AccurateRip returned [CE78532F] (AR v2)
Copy OK
Track 2
Filename C:\EAC rips\02 - Katon.wav
Pre-gap length 0:00:02.57
Peak level 50.0 %
Extraction speed 2.8 X
Track quality 100.0 %
Test CRC D76B969F
Copy CRC D76B969F
Cannot be verified as accurate (confidence 1) [4B886229], AccurateRip returned [356D4949] (AR v2)
Copy OK
Track 3
Filename C:\EAC rips\03 - Silent Observations.wav
Pre-gap length 0:00:02.56
Peak level 79.3 %
Extraction speed 2.5 X
Track quality 99.9 %
Test CRC 3076FD0D
Copy CRC 3076FD0D
Cannot be verified as accurate (confidence 1) [5E40C1D3], AccurateRip returned [5E5E8BA2] (AR v2)
Copy OK
Track 4
Filename C:\EAC rips\04 - At Play in the Fields of the Lord.wav
Pre-gap length 0:00:02.58
Peak level 100.0 %
Extraction speed 3.3 X
Track quality 100.0 %
Test CRC E46AF3CC
Copy CRC E46AF3CC
Cannot be verified as accurate (confidence 1) [93DB0426], AccurateRip returned [B0A2E521] (AR v2)
Copy OK
Track 5
Filename C:\EAC rips\05 - Contrary Motion.wav
Pre-gap length 0:00:02.57
Peak level 100.0 %
Extraction speed 3.7 X
Track quality 100.0 %
Test CRC 2C67DC8A
Copy CRC 2C67DC8A
Cannot be verified as accurate (confidence 1) [88AF0FF3], AccurateRip returned [8D384428] (AR v2)
Copy OK
Track 6
Filename C:\EAC rips\06 - The Power.wav
Pre-gap length 0:00:02.57
Peak level 100.0 %
Extraction speed 3.6 X
Track quality 99.9 %
Test CRC 5059EDFC
Copy CRC 5059EDFC
Cannot be verified as accurate (confidence 1) [9A8EC989], AccurateRip returned [FA0D114E] (AR v2)
Copy OK
Track 7
Filename C:\EAC rips\07 - Moment's Resolution.wav
Pre-gap length 0:00:02.57
Peak level 46.6 %
Extraction speed 3.4 X
Track quality 99.9 %
Test CRC 7677BD30
Copy CRC 7677BD30
Cannot be verified as accurate (confidence 1) [62443F61], AccurateRip returned [F336F6B4] (AR v2)
Copy OK
Track 8
Filename C:\EAC rips\08 - A Little Sumpin' Sumpin'.wav
Pre-gap length 0:00:02.57
Peak level 100.0 %
Extraction speed 4.5 X
Track quality 100.0 %
Test CRC 3696EDB2
Copy CRC 3696EDB2
Cannot be verified as accurate (confidence 1) [6D15920A], AccurateRip returned [3DA5EF3C] (AR v2)
Copy OK
Track 9
Filename C:\EAC rips\09 - Alternate Tuning.wav
Pre-gap length 0:00:02.57
Peak level 33.2 %
Extraction speed 4.1 X
Track quality 100.0 %
Test CRC BB091FEA
Copy CRC BB091FEA
Cannot be verified as accurate (confidence 1) [7F0FB969], AccurateRip returned [9D773CFD] (AR v2)
Copy OK
Track 10
Filename C:\EAC rips\10 - Space of No Pain (take 3).wav
Pre-gap length 0:00:02.58
Peak level 100.0 %
Extraction speed 4.7 X
Track quality 100.0 %
Test CRC D29FB220
Copy CRC D29FB220
Cannot be verified as accurate (confidence 1) [68691C4A], AccurateRip returned [7F6F9E7F] (AR v2)
Copy OK
Track 11
Filename C:\EAC rips\11 - Vocal Improv.wav
Pre-gap length 0:00:02.57
Peak level 91.0 %
Extraction speed 4.3 X
Track quality 100.0 %
Test CRC ABCAC1E9
Copy CRC ABCAC1E9
Cannot be verified as accurate (confidence 1) [EADAF892], AccurateRip returned [CBD96D0A] (AR v2)
Copy OK
No tracks could be verified as accurate
You may have a different pressing from the one(s) in the database
No errors occurred
End of status report
---- CUETools DB Plugin V2.1.4
[CTDB TOCID: 6MnJ2nyJb34RdOk6TWOVV3K9iyM-] disk not present in database
Submit result: 6MnJ2nyJb34RdOk6TWOVV3K9iyM- has been uploaded
==== Log checksum 7261AB3FF2F829D531C533CCB2DDBF70316E1C2B74A5DB68858E361FFC848D52 ====
 
Содержание индексной карты (.CUE)
REM GENRE Jazz
REM DATE 2000
REM DISCID 800F3A0B
REM COMMENT "ExactAudioCopy v1.0b3"
PERFORMER "Kahil El'Zabar's Tri-Factor with Billy Bang & Hamiet Bluiett"
TITLE "The Power"
FILE "01 - Space of No Pain (take 2).wav" WAVE
TRACK 01 AUDIO
TITLE "Space of No Pain (take 2)"
PERFORMER "Kahil El'Zabar's Tri-Factor with Billy Bang & Hamiet Bluiett"
INDEX 01 00:00:00
TRACK 02 AUDIO
TITLE "Katon"
PERFORMER "Kahil El'Zabar's Tri-Factor with Billy Bang & Hamiet Bluiett"
INDEX 00 06:36:01
FILE "02 - Katon.wav" WAVE
INDEX 01 00:00:00
TRACK 03 AUDIO
TITLE "Silent Observations"
PERFORMER "Kahil El'Zabar's Tri-Factor with Billy Bang & Hamiet Bluiett"
INDEX 00 06:39:11
FILE "03 - Silent Observations.wav" WAVE
INDEX 01 00:00:00
TRACK 04 AUDIO
TITLE "At Play in the Fields of the Lord"
PERFORMER "Kahil El'Zabar's Tri-Factor with Billy Bang & Hamiet Bluiett"
INDEX 00 04:39:33
FILE "04 - At Play in the Fields of the Lord.wav" WAVE
INDEX 01 00:00:00
TRACK 05 AUDIO
TITLE "Contrary Motion"
PERFORMER "Kahil El'Zabar's Tri-Factor with Billy Bang & Hamiet Bluiett"
INDEX 00 06:18:70
FILE "05 - Contrary Motion.wav" WAVE
INDEX 01 00:00:00
TRACK 06 AUDIO
TITLE "The Power"
PERFORMER "Kahil El'Zabar's Tri-Factor with Billy Bang & Hamiet Bluiett"
INDEX 00 07:43:57
FILE "06 - The Power.wav" WAVE
INDEX 01 00:00:00
TRACK 07 AUDIO
TITLE "Moment's Resolution"
PERFORMER "Kahil El'Zabar's Tri-Factor with Billy Bang & Hamiet Bluiett"
INDEX 00 08:19:40
FILE "07 - Moment's Resolution.wav" WAVE
INDEX 01 00:00:00
TRACK 08 AUDIO
TITLE "A Little Sumpin' Sumpin'"
PERFORMER "Kahil El'Zabar's Tri-Factor with Billy Bang & Hamiet Bluiett"
INDEX 00 04:46:54
FILE "08 - A Little Sumpin' Sumpin'.wav" WAVE
INDEX 01 00:00:00
TRACK 09 AUDIO
TITLE "Alternate Tuning"
PERFORMER "Kahil El'Zabar's Tri-Factor with Billy Bang & Hamiet Bluiett"
INDEX 00 07:07:72
FILE "09 - Alternate Tuning.wav" WAVE
INDEX 01 00:00:00
TRACK 10 AUDIO
TITLE "Space of No Pain (take 3)"
PERFORMER "Kahil El'Zabar's Tri-Factor with Billy Bang & Hamiet Bluiett"
INDEX 00 02:42:47
FILE "10 - Space of No Pain (take 3).wav" WAVE
INDEX 01 00:00:00
TRACK 11 AUDIO
TITLE "Vocal Improv"
PERFORMER "Kahil El'Zabar's Tri-Factor with Billy Bang & Hamiet Bluiett"
INDEX 00 06:39:68
FILE "11 - Vocal Improv.wav" WAVE
INDEX 01 00:00:00
 
CUETools
[CUETools log; Date: 30.08.2013 17:12:14; Version: 2.1.4]
[CTDB TOCID: 6MnJ2nyJb34RdOk6TWOVV3K9iyM-] found.
Track | CTDB Status
1 | (1/1) Accurately ripped
2 | (1/1) Accurately ripped
3 | (1/1) Accurately ripped
4 | (1/1) Accurately ripped
5 | (1/1) Accurately ripped
6 | (1/1) Accurately ripped
7 | (1/1) Accurately ripped
8 | (1/1) Accurately ripped
9 | (1/1) Accurately ripped
10 | (1/1) Accurately ripped
11 | (1/1) Accurately ripped
[AccurateRip ID: 001c86b5-00f586e9-800f3a0b] found.
Track [ CRC | V2 ] Status
01 [2bff3817|19218aa1] (0+0/1) No match
02 [bcecddb3|4b886229] (0+0/1) No match
03 [4e74d05c|5e40c1d3] (0+0/1) No match
04 [7a757dd7|93db0426] (0+0/1) No match
05 [668c1e6a|88af0ff3] (0+0/1) No match
06 [3a145fd6|9a8ec989] (0+0/1) No match
07 [ab3b5606|62443f61] (0+0/1) No match
08 [dd6433dc|6d15920a] (0+0/1) No match
09 [1592386d|7f0fb969] (0+0/1) No match
10 [fdfe9511|68691c4a] (0+0/1) No match
11 [622aa202|eadaf892] (0+0/1) No match
Offsetted by -618:
01 [ce78532f] (1/1) Accurately ripped
02 [356d4949] (1/1) Accurately ripped
03 [5e5e8ba2] (1/1) Accurately ripped
04 [b0a2e521] (1/1) Accurately ripped
05 [8d384428] (1/1) Accurately ripped
06 [fa0d114e] (1/1) Accurately ripped
07 [f336f6b4] (1/1) Accurately ripped
08 [3da5ef3c] (1/1) Accurately ripped
09 [9d773cfd] (1/1) Accurately ripped
10 [7f6f9e7f] (1/1) Accurately ripped
11 [cbd96d0a] (1/1) Accurately ripped
Track Peak [ CRC32 ] [W/O NULL] [ LOG ]
-- 100.0 [DD968A98] [EBF60EA8]
01 100.0 [296E081B] [D87A9C0C] CRC32
02 50.0 [D76B969F] [F2939851] CRC32
03 79.3 [3076FD0D] [E66E384C] CRC32
04 100.0 [E46AF3CC] [03EEADF8] CRC32
05 100.0 [2C67DC8A] [8CDC435D] CRC32
06 100.0 [5059EDFC] [F0796981] CRC32
07 46.6 [7677BD30] [B72FEE6E] CRC32
08 100.0 [3696EDB2] [BE99E51A] CRC32
09 33.2 [BB091FEA] [6BEDEE34] CRC32
10 100.0 [D29FB220] [AB76E830] CRC32
11 91.0 [ABCAC1E9] [0B991BF8] CRC32
Any questions -> support@pro-jazz.com. По всем вопросам пишите -> support@pro-jazz.com
17:36
349
Нет комментариев. Ваш будет первым!