Вы используете незарегистрированную версию компонента "Вкладки"!

Поиск

(Avant-Garde, Enja Records) Michel Godard, Miroslav Tadic, Mark Nauseef - Loose Wires - 1997, FLAC (tracks+.cue), lossless

(Avant-Garde, Enja Records) Michel Godard, Miroslav Tadic, Mark Nauseef - Loose Wires - 1997, FLAC (tracks+.cue), lossless
Треклист:
Michel Godard, Miroslav Tadic, Mark Nauseef / Loose Wires
Жанр: Avant-Garde, Enja Records
Страна-производитель диска: Germany
Год издания: 1997
Издатель (лейбл): Enja Records
Номер по каталогу: ENJ-90712
Аудиокодек: FLAC (*.flac)
Тип рипа: tracks+.cue
Битрейт аудио: lossless
Продолжительность: 41:30
Источник (релизер): Max Monteiro
Наличие сканов в содержимом раздачи: нет
Треклист:
01. Chanson pour Lise (Michel Godard) 5:33
02. Stara Pesma (Miroslav Tadic) 5:00
03. Monster (Michel Godard) 4:14
04. It’s Still Quite Dark, But There Are Some Signs of Light (Mark Nauseef) 2:56
05. Bakija (Miroslav Tadic) 5:01
06. Les Enfants qui s’aiment (Victor Kosma) 3:27
07. Emilio (Miroslav Tadic) 4:43
08. Spiritual (John Coltrane) 4:06
09. The Locust Have Returned… and They Are Bigger Than Ever!!! (Godard / Tadic / Nauseef) 2:01
10. Down Home Where the Blowfish Roam (Nauseef / Tadic / Godard) 2:01
11. The Immaculate Conception (Tadic / Nauseef / Godard) 2:27
Recorded at CMP Studio, Germany, June 1995.
Michel Godard – Tuba, Serpent
Miroslav Tadic – Guitars
Mark Nauseef – Percussion
 
Лог создания рипа
Exact Audio Copy V1.0 beta 3 from 29. August 2011
EAC extraction logfile from 3. August 2013, 9:57
Michel Godard, Miroslav Tadic, Mark Nauseef / Loose Wires
Used drive : SlimtypeeNAU508 5 Adapter: 1 ID: 0
Read mode : Secure
Utilize accurate stream : Yes
Defeat audio cache : Yes
Make use of C2 pointers : No
Read offset correction : 6
Overread into Lead-In and Lead-Out : No
Fill up missing offset samples with silence : Yes
Delete leading and trailing silent blocks : No
Null samples used in CRC calculations : Yes
Used interface : Native Win32 interface for Win NT & 2000
Gap handling : Appended to previous track
Used output format : User Defined Encoder
Selected bitrate : 768 kBit/s
Quality : High
Add ID3 tag : No
Command line compressor : C:\Program Files (x86)\Exact Audio Copy\Flac\flac.exe
Additional command line options : -8 -V -T "ARTIST=%artist%" -T "TITLE=%title%" -T "ALBUM=%albumtitle%" -T "DATE=%year%" -T "TRACKNUMBER=%tracknr%" -T "GENRE=%genre%" -T "PERFORMER=%albuminterpret%" -T "COMPOSER=%composer%" %haslyrics%--tag-from-file=LYRICS="%lyricsfile%"%haslyrics% -T "ALBUMARTIST=%albumartist%" -T "DISCNUMBER=%cdnumber%" -T "TOTALDISCS=%totalcds%" -T "TOTALTRACKS=%numtracks%" -T "COMMENT=%comment%" %source% -o %dest%
TOC of the extracted CD
Track | Start | Length | Start sector | End sector
---------------------------------------------------------
1 | 0:00.00 | 5:33.07 | 0 | 24981
2 | 5:33.07 | 4:59.50 | 24982 | 47456
3 | 10:32.57 | 4:13.58 | 47457 | 66489
4 | 14:46.40 | 2:55.50 | 66490 | 79664
5 | 17:42.15 | 5:01.35 | 79665 | 102274
6 | 22:43.50 | 3:27.05 | 102275 | 117804
7 | 26:10.55 | 4:43.10 | 117805 | 139039
8 | 30:53.65 | 4:06.37 | 139040 | 157526
9 | 35:00.27 | 2:01.28 | 157527 | 166629
10 | 37:01.55 | 2:01.10 | 166630 | 175714
11 | 39:02.65 | 2:26.67 | 175715 | 186731
Track 1
Filename C:\EAC rips\01 - Chanson pour Lise.wav
Pre-gap length 0:00:02.00
Peak level 98.0 %
Extraction speed 2.2 X
Track quality 100.0 %
Test CRC 9CE1953D
Copy CRC 9CE1953D
Accurately ripped (confidence 2) [D08B4B0F] (AR v1)
Copy OK
Track 2
Filename C:\EAC rips\02 - Stara Pesma.wav
Pre-gap length 0:00:00.50
Peak level 98.0 %
Extraction speed 2.5 X
Track quality 100.0 %
Test CRC D03FA4C4
Copy CRC D03FA4C4
Accurately ripped (confidence 2) [5E86AC01] (AR v1)
Copy OK
Track 3
Filename C:\EAC rips\03 - Monster.wav
Pre-gap length 0:00:01.12
Peak level 98.0 %
Extraction speed 2.7 X
Track quality 100.0 %
Test CRC EE1B16C7
Copy CRC EE1B16C7
Accurately ripped (confidence 2) [E921687E] (AR v1)
Copy OK
Track 4
Filename C:\EAC rips\04 - It's Still Quite Dark, But There Are Some Signs of Light.wav
Pre-gap length 0:00:01.60
Peak level 98.0 %
Extraction speed 2.7 X
Track quality 100.0 %
Test CRC 04F1B708
Copy CRC 04F1B708
Accurately ripped (confidence 2) [C83CBEA5] (AR v1)
Copy OK
Track 5
Filename C:\EAC rips\05 - Bakija.wav
Pre-gap length 0:00:01.30
Peak level 98.0 %
Extraction speed 2.6 X
Track quality 99.9 %
Test CRC D3B66C73
Copy CRC D3B66C73
Accurately ripped (confidence 2) [0B686F01] (AR v1)
Copy OK
Track 6
Filename C:\EAC rips\06 - Les Enfants qui s'aiment.wav
Pre-gap length 0:00:01.58
Peak level 98.0 %
Extraction speed 3.1 X
Track quality 100.0 %
Test CRC 6C2CD600
Copy CRC 6C2CD600
Accurately ripped (confidence 2) [29709A30] (AR v1)
Copy OK
Track 7
Filename C:\EAC rips\07 - Emilio.wav
Pre-gap length 0:00:00.68
Peak level 98.0 %
Extraction speed 3.4 X
Track quality 100.0 %
Test CRC 35C46F9B
Copy CRC 35C46F9B
Accurately ripped (confidence 2) [873ADE09] (AR v1)
Copy OK
Track 8
Filename C:\EAC rips\08 - Spiritual.wav
Pre-gap length 0:00:01.65
Peak level 98.0 %
Extraction speed 3.5 X
Track quality 100.0 %
Test CRC A72D0803
Copy CRC A72D0803
Accurately ripped (confidence 2) [7E18619E] (AR v1)
Copy OK
Track 9
Filename C:\EAC rips\09 - The Locust Have Returned... and They Are Bigger Than Ever!!!.wav
Pre-gap length 0:00:01.40
Peak level 91.1 %
Extraction speed 3.1 X
Track quality 100.0 %
Test CRC A7A2200D
Copy CRC A7A2200D
Accurately ripped (confidence 2) [D0F41490] (AR v1)
Copy OK
Track 10
Filename C:\EAC rips\10 - Down Home Where the Blowfish Roam.wav
Peak level 98.0 %
Extraction speed 2.3 X
Track quality 99.9 %
Test CRC CB5624B9
Copy CRC CB5624B9
Accurately ripped (confidence 2) [AD91B314] (AR v1)
Copy OK
Track 11
Filename C:\EAC rips\11 - The Immaculate Conception.wav
Peak level 98.0 %
Extraction speed 3.1 X
Track quality 100.0 %
Test CRC A28E4D46
Copy CRC A28E4D46
Accurately ripped (confidence 2) [4C6F9141] (AR v1)
Copy OK
All tracks accurately ripped
No errors occurred
End of status report
---- CUETools DB Plugin V2.1.4
[CTDB TOCID: f5FwgHKtM3JtwKvVPJeZhte0p5k-] disk not present in database
Submit result: f5FwgHKtM3JtwKvVPJeZhte0p5k- has been uploaded
==== Log checksum 0820740A92871171219A0BA64CF6E7613CFB2525AC4480A47F3676099387E826 ====
 
Содержание индексной карты (.CUE)
REM GENRE Jazz
REM DATE 1997
REM DISCID 8909B90B
REM COMMENT "ExactAudioCopy v1.0b3"
PERFORMER "Michel Godard, Miroslav Tadic, Mark Nauseef"
TITLE "Loose Wires"
FILE "01 - Chanson pour Lise.wav" WAVE
TRACK 01 AUDIO
TITLE "Chanson pour Lise"
PERFORMER "Michel Godard, Miroslav Tadic, Mark Nauseef"
INDEX 01 00:00:00
TRACK 02 AUDIO
TITLE "Stara Pesma"
PERFORMER "Michel Godard, Miroslav Tadic, Mark Nauseef"
INDEX 00 05:32:32
FILE "02 - Stara Pesma.wav" WAVE
INDEX 01 00:00:00
TRACK 03 AUDIO
TITLE "Monster"
PERFORMER "Michel Godard, Miroslav Tadic, Mark Nauseef"
INDEX 00 04:58:38
FILE "03 - Monster.wav" WAVE
INDEX 01 00:00:00
TRACK 04 AUDIO
TITLE "It's Still Quite Dark, But There Are Some Signs of Light"
PERFORMER "Michel Godard, Miroslav Tadic, Mark Nauseef"
INDEX 00 04:11:73
FILE "04 - It's Still Quite Dark, But There Are Some Signs of Light.wav" WAVE
INDEX 01 00:00:00
TRACK 05 AUDIO
TITLE "Bakija"
PERFORMER "Michel Godard, Miroslav Tadic, Mark Nauseef"
INDEX 00 02:54:20
FILE "05 - Bakija.wav" WAVE
INDEX 01 00:00:00
TRACK 06 AUDIO
TITLE "Les Enfants qui s'aiment"
PERFORMER "Michel Godard, Miroslav Tadic, Mark Nauseef"
INDEX 00 04:59:52
FILE "06 - Les Enfants qui s'aiment.wav" WAVE
INDEX 01 00:00:00
TRACK 07 AUDIO
TITLE "Emilio"
PERFORMER "Michel Godard, Miroslav Tadic, Mark Nauseef"
INDEX 00 03:26:12
FILE "07 - Emilio.wav" WAVE
INDEX 01 00:00:00
TRACK 08 AUDIO
TITLE "Spiritual"
PERFORMER "Michel Godard, Miroslav Tadic, Mark Nauseef"
INDEX 00 04:41:20
FILE "08 - Spiritual.wav" WAVE
INDEX 01 00:00:00
TRACK 09 AUDIO
TITLE "The Locust Have Returned... and They Are Bigger Than Ever!!!"
PERFORMER "Michel Godard, Miroslav Tadic, Mark Nauseef"
INDEX 00 04:04:72
FILE "09 - The Locust Have Returned... and They Are Bigger Than Ever!!!.wav" WAVE
INDEX 01 00:00:00
FILE "10 - Down Home Where the Blowfish Roam.wav" WAVE
TRACK 10 AUDIO
TITLE "Down Home Where the Blowfish Roam"
PERFORMER "Michel Godard, Miroslav Tadic, Mark Nauseef"
INDEX 01 00:00:00
FILE "11 - The Immaculate Conception.wav" WAVE
TRACK 11 AUDIO
TITLE "The Immaculate Conception"
PERFORMER "Michel Godard, Miroslav Tadic, Mark Nauseef"
INDEX 01 00:00:00
Any questions -> support@pro-jazz.com. По всем вопросам пишите -> support@pro-jazz.com
17:36
168
Нет комментариев. Ваш будет первым!