Вы используете незарегистрированную версию компонента "Вкладки"!

Поиск

(Free Jazz, Free Improvisation) Francois Carrier, Michel Lambert, Alexey Lapin - All Out - 2011, FLAC (image+.cue), lossless

(Free Jazz, Free Improvisation) Francois Carrier, Michel Lambert, Alexey Lapin - All Out - 2011, FLAC (image+.cue), lossless
Треклист:
François Carrier, Michel Lambert, Alexey Lapin / All Out
Жанр: Free Jazz, Free Improvisation
Страна-производитель диска: UK
Год издания: 2011
Издатель (лейбл): FMR Records
Номер по каталогу: CD321-0911
Аудиокодек: FLAC (*.flac)
Тип рипа: image+.cue
Битрейт аудио: lossless
Продолжительность: 75:30
Источник (релизер): cd
Наличие сканов в содержимом раздачи: нет
Треклист:
1 Blaze 11:55
2 Wit 9:50
3 Standing 7:50
4 Distance 7:12
5 Ride 15:40
6 With It 6:44
7 Of Breath 15:54
 
Лог создания рипа
Exact Audio Copy V1.0 beta 2 from 29. April 2011
EAC extraction logfile from 30. August 2013, 11:19
Francois Carrier, Michel Lambert, Alexey Lapin / All Out
Used drive : Optiarc DVD RW AD-7170A Adapter: 0 ID: 0
Read mode : Secure
Utilize accurate stream : Yes
Defeat audio cache : Yes
Make use of C2 pointers : No
Read offset correction : 48
Overread into Lead-In and Lead-Out : No
Fill up missing offset samples with silence : Yes
Delete leading and trailing silent blocks : No
Null samples used in CRC calculations : Yes
Used interface : Native Win32 interface for Win NT & 2000
Used output format : User Defined Encoder
Selected bitrate : 320 kBit/s
Quality : High
Add ID3 tag : No
Command line compressor : C:\Program Files\Exact Audio Copy\Flac\flac.exe
Additional command line options : -V -8 -T "Date=%year%" -T "Genre=%genre%" %source%
TOC of the extracted CD
Track | Start | Length | Start sector | End sector
---------------------------------------------------------
1 | 0:00.00 | 11:58.28 | 0 | 53877
2 | 11:58.28 | 9:53.66 | 53878 | 98418
3 | 21:52.19 | 7:53.65 | 98419 | 133958
4 | 29:46.09 | 7:15.65 | 133959 | 166648
5 | 37:01.74 | 15:43.63 | 166649 | 237436
6 | 52:45.62 | 6:47.56 | 237437 | 268017
7 | 59:33.43 | 15:57.17 | 268018 | 339809
Range status and errors
Selected range
Filename K:\ЕАС\Francois Carrier, Michel Lambert, Alexey Lapin - All Out.wav
Peak level 85.3 %
Extraction speed 2.2 X
Range quality 99.9 %
Test CRC 7D973AFE
Copy CRC 7D973AFE
Copy OK
No errors occurred
AccurateRip summary
Track 1 not present in database
Track 2 not present in database
Track 3 not present in database
Track 4 not present in database
Track 5 not present in database
Track 6 not present in database
Track 7 not present in database
None of the tracks are present in the AccurateRip database
End of status report
==== Log checksum A75A4CD588207A85282985AB725D89F4F9170A84D5A2FD8239498AA3FCB69D2D ====
 
Содержание индексной карты (.CUE)
REM GENRE Jazz
REM DATE 2011
REM DISCID 5A11B207
REM COMMENT "ExactAudioCopy v1.0b2"
PERFORMER "Francois Carrier, Michel Lambert, Alexey Lapin"
TITLE "All Out"
FILE "Francois Carrier, Michel Lambert, Alexey Lapin - All Out.flac" WAVE
TRACK 01 AUDIO
TITLE "Blaze"
PERFORMER "Francois Carrier, Michel Lambert, Alexey Lapin"
ISRC 000000000000
INDEX 01 00:00:00
TRACK 02 AUDIO
TITLE "Wit"
PERFORMER "Francois Carrier, Michel Lambert, Alexey Lapin"
ISRC 000000000000
INDEX 00 11:55:29
INDEX 01 11:58:28
TRACK 03 AUDIO
TITLE "Standing"
PERFORMER "Francois Carrier, Michel Lambert, Alexey Lapin"
ISRC 000000000000
INDEX 00 21:49:19
INDEX 01 21:52:19
TRACK 04 AUDIO
TITLE "Distance"
PERFORMER "Francois Carrier, Michel Lambert, Alexey Lapin"
ISRC 000000000000
INDEX 00 29:43:10
INDEX 01 29:46:09
TRACK 05 AUDIO
TITLE "Ride"
PERFORMER "Francois Carrier, Michel Lambert, Alexey Lapin"
ISRC 000000000000
INDEX 00 36:59:00
INDEX 01 37:01:74
TRACK 06 AUDIO
TITLE "With It"
PERFORMER "Francois Carrier, Michel Lambert, Alexey Lapin"
ISRC 000000000000
INDEX 00 52:42:63
INDEX 01 52:45:62
TRACK 07 AUDIO
TITLE "Of Breath"
PERFORMER "Francois Carrier, Michel Lambert, Alexey Lapin"
ISRC 000000000000
INDEX 00 59:30:44
INDEX 01 59:33:43
Доп. информация: Recorded live at JFC Jazz Club in St-Petersburg, Russia on December 20th 2010
 
Состав
Alto Saxophone – François Carrier
Drums – Michel Lambert
Piano, Engineer [Sound], Mixed By [Mix] – Alexey Lapin
Any questions -> support@pro-jazz.com. По всем вопросам пишите -> support@pro-jazz.com
17:38
215
Нет комментариев. Ваш будет первым!