Вы используете незарегистрированную версию компонента "Вкладки"!

Поиск

(Free Jazz, Contemporary Jazz) Esa Pietila - Fastjoik - 1998, FLAC (tracks+.cue), lossless

(Free Jazz, Contemporary Jazz) Esa Pietila - Fastjoik - 1998, FLAC (tracks+.cue), lossless
Треклист:
Esa Pietila / Fastjoik
Жанр: Free Jazz, Contemporary Jazz
Год издания: 1998
Издатель (лейбл): A-Records
Номер по каталогу: AL73147
Аудиокодек: FLAC (*.flac)
Тип рипа: tracks+.cue
Битрейт аудио: lossless
Продолжительность: 64:33
Источник (релизер): whatcd
Наличие сканов в содержимом раздачи: нет
Треклист:
1. Fastjoik (Pietila)
2. Little Big J. (Pietila)
3. Before Moon (Pietila)
4. Scramble (Pietila)
5. Joker (Pietila)
6. Rapa (Pietila)
7. Some Habits (Pietila)
8. Sardes (Bergcrantz)
9. Bride of Bilbao (Anttila)
10. Fire (Anttila)
11. After Moon (Pietila)
 
Лог создания рипа
Exact Audio Copy V1.0 beta 2 from 29. April 2011
EAC extraction logfile from 14. August 2012, 20:49
Esa Pietilä / Fastjoik
Used drive : TSSTcorpCDDVDW SH-S223L Adapter: 1 ID: 1
Read mode : Secure
Utilize accurate stream : Yes
Defeat audio cache : Yes
Make use of C2 pointers : No
Read offset correction : 6
Overread into Lead-In and Lead-Out : No
Fill up missing offset samples with silence : Yes
Delete leading and trailing silent blocks : No
Null samples used in CRC calculations : Yes
Used interface : Native Win32 interface for Win NT & 2000
Gap handling : Appended to previous track
Used output format : User Defined Encoder
Selected bitrate : 896 kBit/s
Quality : High
Add ID3 tag : No
Command line compressor : C:\Program Files (x86)\Exact Audio Copy\Flac\flac.exe
Additional command line options : -8 -V -T "ARTIST=%artist%" -T "TITLE=%title%" -T "ALBUM=%albumtitle%" -T "DATE=%year%" -T "TRACKNUMBER=%tracknr%" -T "GENRE=%genre%" -T "PERFORMER=%albuminterpret%" -T "COMPOSER=%composer%" %haslyrics%--tag-from-file=LYRIC
TOC of the extracted CD
Track | Start | Length | Start sector | End sector
---------------------------------------------------------
1 | 0:00.00 | 6:57.65 | 0 | 31339
2 | 6:57.65 | 6:42.68 | 31340 | 61557
3 | 13:40.58 | 8:13.59 | 61558 | 98591
4 | 21:54.42 | 6:07.26 | 98592 | 126142
5 | 28:01.68 | 7:43.17 | 126143 | 160884
6 | 35:45.10 | 5:27.20 | 160885 | 185429
7 | 41:12.30 | 6:10.07 | 185430 | 213186
8 | 47:22.37 | 5:29.17 | 213187 | 237878
9 | 52:51.54 | 4:41.69 | 237879 | 259022
10 | 57:33.48 | 4:33.31 | 259023 | 279528
11 | 62:07.04 | 2:16.66 | 279529 | 289794
Track 1
Filename M:\Music\What 5\Esa Pietilä - Fastjoik (1998) [FLAC]\01 - Fastjoik.wav
Pre-gap length 0:00:02.00
Peak level 100.0 %
Extraction speed 2.1 X
Track quality 100.0 %
Test CRC 2EB4D8A5
Copy CRC 2EB4D8A5
Track not present in AccurateRip database
Copy OK
Track 2
Filename M:\Music\What 5\Esa Pietilä - Fastjoik (1998) [FLAC]\02 - Little Big J..wav
Pre-gap length 0:00:02.60
Peak level 100.0 %
Extraction speed 2.3 X
Track quality 100.0 %
Test CRC D4D3D658
Copy CRC D4D3D658
Track not present in AccurateRip database
Copy OK
Track 3
Filename M:\Music\What 5\Esa Pietilä - Fastjoik (1998) [FLAC]\03 - Before Moon.wav
Pre-gap length 0:00:01.60
Peak level 83.9 %
Extraction speed 2.9 X
Track quality 100.0 %
Test CRC 22704C7F
Copy CRC 22704C7F
Track not present in AccurateRip database
Copy OK
Track 4
Filename M:\Music\What 5\Esa Pietilä - Fastjoik (1998) [FLAC]\04 - Scramble.wav
Pre-gap length 0:00:01.60
Peak level 91.9 %
Extraction speed 4.2 X
Track quality 100.0 %
Test CRC 3D3DA203
Copy CRC 3D3DA203
Track not present in AccurateRip database
Copy OK
Track 5
Filename M:\Music\What 5\Esa Pietilä - Fastjoik (1998) [FLAC]\05 - Joker.wav
Pre-gap length 0:00:01.60
Peak level 97.0 %
Extraction speed 4.7 X
Track quality 100.0 %
Test CRC 66695D55
Copy CRC 66695D55
Track not present in AccurateRip database
Copy OK
Track 6
Filename M:\Music\What 5\Esa Pietilä - Fastjoik (1998) [FLAC]\06 - Rapa.wav
Pre-gap length 0:00:01.60
Peak level 82.2 %
Extraction speed 4.8 X
Track quality 100.0 %
Test CRC 38AA3709
Copy CRC 38AA3709
Track not present in AccurateRip database
Copy OK
Track 7
Filename M:\Music\What 5\Esa Pietilä - Fastjoik (1998) [FLAC]\07 - Some Habits.wav
Pre-gap length 0:00:01.60
Peak level 100.0 %
Extraction speed 5.1 X
Track quality 100.0 %
Test CRC 8E887F3D
Copy CRC 8E887F3D
Track not present in AccurateRip database
Copy OK
Track 8
Filename M:\Music\What 5\Esa Pietilä - Fastjoik (1998) [FLAC]\08 - Sardes.wav
Pre-gap length 0:00:03.60
Peak level 96.5 %
Extraction speed 5.3 X
Track quality 100.0 %
Test CRC 7DAAFFE7
Copy CRC 7DAAFFE7
Track not present in AccurateRip database
Copy OK
Track 9
Filename M:\Music\What 5\Esa Pietilä - Fastjoik (1998) [FLAC]\09 - Bride of Bilbao.wav
Pre-gap length 0:00:01.60
Peak level 86.8 %
Extraction speed 5.4 X
Track quality 100.0 %
Test CRC A2F447F1
Copy CRC A2F447F1
Track not present in AccurateRip database
Copy OK
Track 10
Filename M:\Music\What 5\Esa Pietilä - Fastjoik (1998) [FLAC]\10 - Fire.wav
Pre-gap length 0:00:01.60
Peak level 93.7 %
Extraction speed 5.5 X
Track quality 100.0 %
Test CRC 34F8BF02
Copy CRC 34F8BF02
Track not present in AccurateRip database
Copy OK
Track 11
Filename M:\Music\What 5\Esa Pietilä - Fastjoik (1998) [FLAC]\11 - After Moon.wav
Pre-gap length 0:00:01.60
Peak level 69.2 %
Extraction speed 5.0 X
Track quality 100.0 %
Test CRC B5C22D25
Copy CRC B5C22D25
Track not present in AccurateRip database
Copy OK
None of the tracks are present in the AccurateRip database
No errors occurred
End of status report
==== Log checksum DEA6985C213817C58EC25AEC5489E61BA99A1E9F6C162682E47C0E0D105F2F1C ====
 
Содержание индексной карты (.CUE)
REM GENRE Jazz
REM DATE 1998
REM DISCID 9E0F170B
REM COMMENT "ExactAudioCopy v1.0b2"
PERFORMER "Esa Pietilд"
TITLE "Fastjoik"
FILE "01 - Fastjoik.wav" WAVE
TRACK 01 AUDIO
TITLE "Fastjoik"
PERFORMER "Esa Pietilд"
INDEX 01 00:00:00
TRACK 02 AUDIO
TITLE "Little Big J."
PERFORMER "Esa Pietilд"
INDEX 00 06:55:20
FILE "02 - Little Big J..wav" WAVE
INDEX 01 00:00:00
TRACK 03 AUDIO
TITLE "Before Moon"
PERFORMER "Esa Pietilд"
INDEX 00 06:41:23
FILE "03 - Before Moon.wav" WAVE
INDEX 01 00:00:00
TRACK 04 AUDIO
TITLE "Scramble"
PERFORMER "Esa Pietilд"
INDEX 00 08:12:14
FILE "04 - Scramble.wav" WAVE
INDEX 01 00:00:00
TRACK 05 AUDIO
TITLE "Joker"
PERFORMER "Esa Pietilд"
INDEX 00 06:05:56
FILE "05 - Joker.wav" WAVE
INDEX 01 00:00:00
TRACK 06 AUDIO
TITLE "Rapa"
PERFORMER "Esa Pietilд"
INDEX 00 07:41:47
FILE "06 - Rapa.wav" WAVE
INDEX 01 00:00:00
TRACK 07 AUDIO
TITLE "Some Habits"
PERFORMER "Esa Pietilд"
INDEX 00 05:25:50
FILE "07 - Some Habits.wav" WAVE
INDEX 01 00:00:00
TRACK 08 AUDIO
TITLE "Sardes"
PERFORMER "Esa Pietilд"
INDEX 00 06:06:37
FILE "08 - Sardes.wav" WAVE
INDEX 01 00:00:00
TRACK 09 AUDIO
TITLE "Bride of Bilbao"
PERFORMER "Esa Pietilд"
INDEX 00 05:27:47
FILE "09 - Bride of Bilbao.wav" WAVE
INDEX 01 00:00:00
TRACK 10 AUDIO
TITLE "Fire"
PERFORMER "Esa Pietilд"
INDEX 00 04:40:24
FILE "10 - Fire.wav" WAVE
INDEX 01 00:00:00
TRACK 11 AUDIO
TITLE "After Moon"
PERFORMER "Esa Pietilд"
INDEX 00 04:31:61
FILE "11 - After Moon.wav" WAVE
INDEX 01 00:00:00
 
Состав
Esa Pietila - tenor sax, soprano sax
Anders Bergcrantz - trumpet, Fluegelhorn
Pessi Levanto - piano
Ari-Pekka Anttila - acoustic bass
Markku Ounaskari - drums
Any questions -> support@pro-jazz.com. По всем вопросам пишите -> support@pro-jazz.com
03:06
140
Нет комментариев. Ваш будет первым!