Вы используете незарегистрированную версию компонента "Вкладки"!

Поиск

(Free Improvisation) Hans Koch, Martin Schutz, Fredy Studer - Tales From 30 Unintentional Nights - 2006, FLAC (tracks+.cue), lossless

(Free Improvisation) Hans Koch, Martin Schutz, Fredy Studer - Tales From 30 Unintentional Nights - 2006, FLAC (tracks+.cue), lossless
Треклист:
Koch-Schutz-Studer / Tales From 30 Unintentional Nights
Жанр: Free Improvisation
Страна-производитель диска: Switzerland
Год издания: 2006
Издатель (лейбл): Intakt Records
Номер по каталогу: CD 117
Аудиокодек: FLAC (*.flac)
Тип рипа: tracks+.cue
Битрейт аудио: lossless
Продолжительность: 61:07
Источник (релизер): whatcd
Наличие сканов в содержимом раздачи: нет
Треклист:
1 9/10 (For Daniel & Jean-Claude) 10:57
2 9/29 (For Walter & Marianne) 9:21
3 9/25 (For Christine) 3:57
4 9/30 (For Beny) 5:14
5 9/28 (For Peter) 6:03
6 9/21 (For Markus & Silvio) 7:06
7 9/26 (For Evelyne) 6:22
8 9/11 (For The "La Locura" Barteam) 9:28
9 9/25 (For Sonja) 2:35
 
Лог создания рипа
Exact Audio Copy V0.99 prebeta 4 from 23. January 2008
EAC extraction logfile from 13. December 2008, 11:58
Koch-Schьtz-Studer / Tales From 30 Unintentional Nights
Used drive : TSSTcorpCD/DVDW SH-S182M Adapter: 0 ID: 0
Read mode : Secure
Utilize accurate stream : Yes
Defeat audio cache : Yes
Make use of C2 pointers : No
Read offset correction : 6
Overread into Lead-In and Lead-Out : No
Fill up missing offset samples with silence : Yes
Delete leading and trailing silent blocks : No
Null samples used in CRC calculations : Yes
Used interface : Native Win32 interface for Win NT & 2000
Gap handling : Appended to previous track
Used output format : User Defined Encoder
Selected bitrate : 768 kBit/s
Quality : High
Add ID3 tag : No
Command line compressor : C:\Program Files (x86)\Exact Audio Copy\FLAC\FLAC.EXE
Additional command line options : -V -8 -T "artist=%a" -T "title=%t" -T "album=%g" -T "date=%y" -T "tracknumber=%n" -T "genre=%m" %s
TOC of the extracted CD
Track | Start | Length | Start sector | End sector
---------------------------------------------------------
1 | 0:00.00 | 10:57.36 | 0 | 49310
2 | 10:57.36 | 9:21.59 | 49311 | 91444
3 | 20:19.20 | 3:57.09 | 91445 | 109228
4 | 24:16.29 | 5:14.07 | 109229 | 132785
5 | 29:30.36 | 6:03.36 | 132786 | 160046
6 | 35:33.72 | 7:06.74 | 160047 | 192070
7 | 42:40.71 | 6:22.56 | 192071 | 220776
8 | 49:03.52 | 9:28.42 | 220777 | 263418
9 | 58:32.19 | 2:35.27 | 263419 | 275070
Track 1
Filename M:\Koch-Schьtz-Studer\[2006] Tales From 30 Unintentional Nights []\01 - Koch-Schьtz-Studer - 9,10 (for Dniel & Jean-Claude).wav
Pre-gap length 0:00:02.00
Peak level 100.0 %
Track quality 99.9 %
Test CRC 6B9F0DA0
Copy CRC 6B9F0DA0
Track not present in AccurateRip database
Copy OK
Track 2
Filename M:\Koch-Schьtz-Studer\[2006] Tales From 30 Unintentional Nights []\02 - Koch-Schьtz-Studer - 9,29 (for Walter & Marianne).wav
Peak level 100.0 %
Track quality 100.0 %
Test CRC C8C6AF44
Copy CRC C8C6AF44
Track not present in AccurateRip database
Copy OK
Track 3
Filename M:\Koch-Schьtz-Studer\[2006] Tales From 30 Unintentional Nights []\03 - Koch-Schьtz-Studer - 9,25 (for Christine).wav
Peak level 100.0 %
Track quality 100.0 %
Test CRC 34EB0725
Copy CRC 34EB0725
Track not present in AccurateRip database
Copy OK
Track 4
Filename M:\Koch-Schьtz-Studer\[2006] Tales From 30 Unintentional Nights []\04 - Koch-Schьtz-Studer - 9,30 (for Beny).wav
Peak level 100.0 %
Track quality 100.0 %
Test CRC 452E9361
Copy CRC 452E9361
Track not present in AccurateRip database
Copy OK
Track 5
Filename M:\Koch-Schьtz-Studer\[2006] Tales From 30 Unintentional Nights []\05 - Koch-Schьtz-Studer - 9,28 (for Peter).wav
Peak level 100.0 %
Track quality 100.0 %
Test CRC 8062CB23
Copy CRC 8062CB23
Track not present in AccurateRip database
Copy OK
Track 6
Filename M:\Koch-Schьtz-Studer\[2006] Tales From 30 Unintentional Nights []\06 - Koch-Schьtz-Studer - 9,21 (for Markus & Silvio).wav
Peak level 100.0 %
Track quality 100.0 %
Test CRC A0A049AE
Copy CRC A0A049AE
Track not present in AccurateRip database
Copy OK
Track 7
Filename M:\Koch-Schьtz-Studer\[2006] Tales From 30 Unintentional Nights []\07 - Koch-Schьtz-Studer - 9,26 (for Evelyne).wav
Peak level 100.0 %
Track quality 100.0 %
Test CRC 3A4045A4
Copy CRC 3A4045A4
Track not present in AccurateRip database
Copy OK
Track 8
Filename M:\Koch-Schьtz-Studer\[2006] Tales From 30 Unintentional Nights []\08 - Koch-Schьtz-Studer - 9,11 (for the [[La Locura]] Barteam).wav
Peak level 100.0 %
Track quality 100.0 %
Test CRC 0D06CA74
Copy CRC 0D06CA74
Track not present in AccurateRip database
Copy OK
Track 9
Filename M:\Koch-Schьtz-Studer\[2006] Tales From 30 Unintentional Nights []\09 - Koch-Schьtz-Studer - 9,23 (for Sonja).wav
Pre-gap length 0:00:00.06
Peak level 100.0 %
Track quality 100.0 %
Test CRC 28B1E585
Copy CRC 28B1E585
Track not present in AccurateRip database
Copy OK
None of the tracks are present in the AccurateRip database
No errors occurred
End of status report
 
Содержание индексной карты (.CUE)
REM GENRE Improv
REM DATE 2006
REM DISCID 7A0E5309
REM COMMENT "ExactAudioCopy v0.99pb4"
PERFORMER "Koch-Schьtz-Studer"
TITLE "Tales From 30 Unintentional Nights"
FILE "01 - Koch-Schьtz-Studer - 9,10 (for Dniel & Jean-Claude).wav" WAVE
TRACK 01 AUDIO
TITLE "9/10 (for Dniel & Jean-Claude)"
PERFORMER "Koch-Schьtz-Studer"
FLAGS DCP
INDEX 01 00:00:00
FILE "02 - Koch-Schьtz-Studer - 9,29 (for Walter & Marianne).wav" WAVE
TRACK 02 AUDIO
TITLE "9/29 (for Walter & Marianne)"
PERFORMER "Koch-Schьtz-Studer"
FLAGS DCP
INDEX 01 00:00:00
FILE "03 - Koch-Schьtz-Studer - 9,25 (for Christine).wav" WAVE
TRACK 03 AUDIO
TITLE "9/25 (for Christine)"
PERFORMER "Koch-Schьtz-Studer"
FLAGS DCP
INDEX 01 00:00:00
FILE "04 - Koch-Schьtz-Studer - 9,30 (for Beny).wav" WAVE
TRACK 04 AUDIO
TITLE "9/30 (for Beny)"
PERFORMER "Koch-Schьtz-Studer"
FLAGS DCP
INDEX 01 00:00:00
FILE "05 - Koch-Schьtz-Studer - 9,28 (for Peter).wav" WAVE
TRACK 05 AUDIO
TITLE "9/28 (for Peter)"
PERFORMER "Koch-Schьtz-Studer"
FLAGS DCP
INDEX 01 00:00:00
FILE "06 - Koch-Schьtz-Studer - 9,21 (for Markus & Silvio).wav" WAVE
TRACK 06 AUDIO
TITLE "9/21 (for Markus & Silvio)"
PERFORMER "Koch-Schьtz-Studer"
FLAGS DCP
INDEX 01 00:00:00
FILE "07 - Koch-Schьtz-Studer - 9,26 (for Evelyne).wav" WAVE
TRACK 07 AUDIO
TITLE "9/26 (for Evelyne)"
PERFORMER "Koch-Schьtz-Studer"
FLAGS DCP
INDEX 01 00:00:00
FILE "08 - Koch-Schьtz-Studer - 9,11 (for the [[La Locura]] Barteam).wav" WAVE
TRACK 08 AUDIO
TITLE "9/11 (for the <<La Locura>> Barteam)"
PERFORMER "Koch-Schьtz-Studer"
FLAGS DCP
INDEX 01 00:00:00
TRACK 09 AUDIO
TITLE "9/23 (for Sonja)"
PERFORMER "Koch-Schьtz-Studer"
FLAGS DCP
INDEX 00 09:28:37
FILE "09 - Koch-Schьtz-Studer - 9,23 (for Sonja).wav" WAVE
INDEX 01 00:00:00
Доп. информация: Recorded live at "SCHLOSSEREI12", Zurich, Switzerland, between September 1 and September 30, 2005
 
Состав
Cello [5-string Electric], Electronics – Martin Schutz
Drums, Percussion – Fredy Studer
Reeds, Electronics – Hans Koch
Any questions -> support@pro-jazz.com. По всем вопросам пишите -> support@pro-jazz.com
03:05
182
Нет комментариев. Ваш будет первым!