Вы используете незарегистрированную версию компонента "Вкладки"!

Поиск

(Avant-Garde/Acoustic Jazz/Improvisation) Aeroplane Trio - Naranja Ha [CD+DVD] - 2010, WavPack (iso.wv), lossless

(Avant-Garde/Acoustic Jazz/Improvisation) Aeroplane Trio - Naranja Ha [CD+DVD] - 2010, WavPack (iso.wv), lossless
Треклист:
Aeroplane Trio / Naranja Ha [CD+DVD]
Жанр: Avant-Prog/Acoustic Jazz/Improvisation
Страна-производитель диска: Canada
Год издания: 2010
Издатель (лейбл): Drip Audio
Номер по каталогу: DA00647
Страна: Canada
Аудиокодек: WavPack (*.wv)
Тип рипа: iso.wv
Битрейт аудио: lossless
Продолжительность: 45:18
Источник (релизер): tatuk (с полочки в шкафчике)
Наличие сканов в содержимом раздачи: да
Треклист:
1. Pre Rumble 4:47
2. Lucky Loonie 4:28
3. Rock Paper 3:04
4. Whitehorse 4:10
5. Plastic Farm Animals 4:07
6. Callejuela 6:58
7. They Came and Took Away Our Kittens 5:18
8. Subtle Shock 0:52
9. Whatever Happened to the Sand People 1:03
10. Crow's Nest 4:43
11. Lagoon 5:50
 
Лог создания рипа
Exact Audio Copy V1.0 beta 3 from 29. August 2011
EAC extraction logfile from 16. May 2012, 23:17
Aeroplane Trio / Naranja Ha
Used drive : SONY DVD RW DRU-830A Adapter: 1 ID: 0
Read mode : Secure
Utilize accurate stream : Yes
Defeat audio cache : Yes
Make use of C2 pointers : No
Read offset correction : 6
Overread into Lead-In and Lead-Out : No
Fill up missing offset samples with silence : Yes
Delete leading and trailing silent blocks : No
Null samples used in CRC calculations : Yes
Used interface : Native Win32 interface for Win NT & 2000
Used output format : User Defined Encoder
Selected bitrate : 768 kBit/s
Quality : High
Add ID3 tag : No
Command line compressor : C:\Program Files (x86)\Exact Audio Copy\wavpack\wavpack.exe
Additional command line options : -hlm %source%
TOC of the extracted CD
Track | Start | Length | Start sector | End sector
---------------------------------------------------------
1 | 0:00.00 | 4:46.51 | 0 | 21500
2 | 4:46.51 | 4:27.70 | 21501 | 41595
3 | 9:14.46 | 3:03.61 | 41596 | 55381
4 | 12:18.32 | 4:09.56 | 55382 | 74112
5 | 16:28.13 | 4:06.65 | 74113 | 92627
6 | 20:35.03 | 6:57.61 | 92628 | 123963
7 | 27:32.64 | 5:18.21 | 123964 | 147834
8 | 32:51.10 | 0:52.21 | 147835 | 151755
9 | 33:43.31 | 1:02.40 | 151756 | 156445
10 | 34:45.71 | 4:43.36 | 156446 | 177706
11 | 39:29.32 | 5:49.66 | 177707 | 203947
Range status and errors
Selected range
Filename D:\_NL+_by_TATUK\WV.ISO9\Aeroplane Trio - Naranja Ha.wav
Peak level 96.6 %
Extraction speed 6.6 X
Range quality 100.0 %
Copy CRC 126A4294
Copy OK
No errors occurred
AccurateRip summary
Track 1 accurately ripped (confidence 1) [8F669663] (AR v2)
Track 2 accurately ripped (confidence 1) [DD610465] (AR v2)
Track 3 accurately ripped (confidence 1) [6FE32063] (AR v2)
Track 4 accurately ripped (confidence 1) [A729F4D6] (AR v2)
Track 5 accurately ripped (confidence 1) [29201C5C] (AR v2)
Track 6 accurately ripped (confidence 1) [BA0CAF9D] (AR v2)
Track 7 accurately ripped (confidence 1) [95E49321] (AR v2)
Track 8 accurately ripped (confidence 1) [8FF72839] (AR v2)
Track 9 accurately ripped (confidence 1) [37F41F18] (AR v2)
Track 10 accurately ripped (confidence 1) [E9B6FF7A] (AR v2)
Track 11 accurately ripped (confidence 1) [C86A6C83] (AR v2)
All tracks accurately ripped
End of status report
==== Log checksum 7054ED2E727FFFED02F6311BDB4BCF1A7AA57942FFE5EBD4DDE377D793F25728 ====
 
Содержание индексной карты (.CUE)
REM GENRE "Avantgarde"
REM DATE 2010
REM DISCID 990A9F0B
REM COMMENT "ExactAudioCopy v1.0b3"
PERFORMER "Aeroplane Trio"
TITLE "Naranja Ha"
FILE "Aeroplane Trio - Naranja Ha 2010.wv" WAVE
TRACK 01 AUDIO
TITLE "Pre Rumble"
PERFORMER " "
INDEX 01 00:00:00
TRACK 02 AUDIO
TITLE "Lucky Loonie"
PERFORMER " "
INDEX 00 04:45:51
INDEX 01 04:46:51
TRACK 03 AUDIO
TITLE "Rock Paper"
PERFORMER " "
INDEX 00 09:12:46
INDEX 01 09:14:46
TRACK 04 AUDIO
TITLE "Whitehorse"
PERFORMER " "
INDEX 00 12:16:32
INDEX 01 12:18:32
TRACK 05 AUDIO
TITLE "Plastic Farm Animals"
PERFORMER " "
INDEX 00 16:26:13
INDEX 01 16:28:13
TRACK 06 AUDIO
TITLE "Callejuela"
PERFORMER " "
INDEX 00 20:34:41
INDEX 01 20:35:03
TRACK 07 AUDIO
TITLE "They Came And Took Away Our Kittens"
PERFORMER " "
INDEX 00 27:30:64
INDEX 01 27:32:64
TRACK 08 AUDIO
TITLE "Subtle Shock"
PERFORMER " "
INDEX 00 32:47:10
INDEX 01 32:51:10
TRACK 09 AUDIO
TITLE "Whatever Happened To The Sand People ?"
PERFORMER " "
INDEX 01 33:43:31
TRACK 10 AUDIO
TITLE "Crow's Nest"
PERFORMER " "
INDEX 01 34:45:71
TRACK 11 AUDIO
TITLE "Lagoon"
PERFORMER " "
INDEX 00 39:25:32
INDEX 01 39:29:32
 
Лог проверки качества
-----------------------
DON'T MODIFY THIS FILE
-----------------------
PERFORMER: auCDtect Task Manager, ver. 1.5.1RC3 build 1.5.1.4
Copyright (c) 2008-2010 y-soft. All rights reserved
http://y-soft.org
ANALYZER: auCDtect: CD records authenticity detector, version 0.8.2
Copyright (c) 2004 Oleg Berngardt. All rights reserved.
Copyright (c) 2004 Alexander Djourik. All rights reserved.
FILE: Aeroplane Trio - Naranja Ha.wv
Size: 242890914 Hash: CB29509B4032C636CCDECB4DCAAEEDB2 Accuracy: -m0
Conclusion: CDDA 100%
Signature: 2D227DB2CB81A7A814FD1B3482BF0580C2EB42BD
 
Скриншот спектра частот
 
Содержимое контейнера
back.jpg
Drip Audio DA00647.sig
front.jpg
Aeroplane Trio - Naranja Ha 2010.wv.cue
Aeroplane Trio - Naranja Ha 2010.wv
Aeroplane Trio - Naranja Ha 2010.log
cd.jpg
checkers\Aeroplane Trio - Naranja Ha.wv.auCDtect.txt
checkers\EAC.jpg
checkers\matrix.jpg
checkers\spectral.jpg
checkers\wave.jpg
checkers\Aeroplane Trio - Naranja Ha 2010.accurip
misc\info.txt
readme\[RUS] README No unpacking needed to play or burn this release.txt
readme\[ENG] README No unpacking needed to play or burn this release.txt
scans\front.jpg
scans\inside1.jpg
scans\inside2.jpg
scans\inside3.jpg
scans\disks.jpg
Доп. информация: Этот диск вышел в виде двойника СД+ДВД. Видео часть можно скачать здесь. Там же есть мала-мала инфы о группе, повторяться лениво.
СД интересен тем же, что и ДВД - вперемешку идут заранее написанные композиции и импровизации в чистом виде. Скажу конкретнее: к композициям относятся "Lucky Loonie" (Russell), "Whitehorse" (JP), "Callejuela" (JP), и "Crow's Nest" (Russell). Остальные - импровизационные. По длительности получается примерно пополам.
Рекомендую сначала послушать весь диск и попробовать самому отделить композиции от импровизаций, а потом проверить результат по названиям песен. Очень весело получается
P.S.
Lucky Loonie - в переводе с канадского означает "счастливый доллар". Именно с канадского, потому как Loon - это утка, изображённая на канадском железном долларе. По-американски было бы - Lucky Buck.
 
Состав
JP Carter-trumpet, cornet
Russell Sholberg-double bass, saw, thumb piano
Skye Brooks-drums, percussion
Any questions -> support@pro-jazz.com. По всем вопросам пишите -> support@pro-jazz.com
03:04
186
Нет комментариев. Ваш будет первым!