Вы используете незарегистрированную версию компонента "Вкладки"!

Поиск

(avant-garde, free jazz) Hafez Modirzadeh - Post-Chromodal Out! (2012), FLAC (tracks+.cue), lossless

(avant-garde, free jazz) Hafez Modirzadeh - Post-Chromodal Out! (2012), FLAC (tracks+.cue), lossless
Треклист:


Hafez Modirzadeh - Post-Chromodal Out! (2012)

Жанр: avant-garde, free jazz
Год выпуска: 2012
Издатель (лейбл):Pi Recordings
Формат: FLAC (tracks+.cue)
Битрейт аудио: lossless
Продолжительность 1`13`45
Источник: what.cd

tracks

01 Facet Thirteen
02 Facet Fourteen
03 Facet Fifteen
04 Interlude I
05 Facet Sixteen
06 Facet Seventeen
07 Facet Eighteen
08 Interlude II
09 Facet Nineteen
10 Facet Twenty
11 Facet Twenty One
12 Facet Twenty Two
13 Interlude III
14 Facet Twenty Three
15 Facet Twenty Four
16 Interlude IV
17 Facet Twenty Five/Reprise
18 Wolf One
19 Wolf Two Piano Solo
20 Wolf Two Ensemble
21 Wolf Two Bass Solo
22 Warp Three Ensemble
23 Warp Three Drum Solo
24 Warp Four
25 Wolf Five Part One
26 Wolf Five Part Two
27 Wolf Six
28 Wolf Seven


 
.log
X Lossless Decoder version 20120609 (141.0)
XLD extraction logfile from 2012-08-16 18:07:17 -0400
Hafez Modirzadeh / Post-Chromodal Out!
Used drive : MATSHITA DVD-R UJ-8A8 (revision HB14)
Ripper mode : XLD Secure Ripper
Disable audio cache : OK for the drive with a cache less than 1375KiB
Make use of C2 pointers : NO
Read offset correction : 102
Max retry count : 20
Gap status : Analyzed, Appended (except HTOA)
TOC of the extracted CD
Track | Start | Length | Start sector | End sector
---------------------------------------------------------
1 | 00:00:00 | 02:56:45 | 0 | 13244
2 | 02:56:45 | 08:25:73 | 13245 | 51192
3 | 11:22:43 | 01:48:52 | 51193 | 59344
4 | 13:11:20 | 02:44:10 | 59345 | 71654
5 | 15:55:30 | 01:45:55 | 71655 | 79584
6 | 17:41:10 | 06:03:56 | 79585 | 106865
7 | 23:44:66 | 01:48:38 | 106866 | 115003
8 | 25:33:29 | 02:06:18 | 115004 | 124471
9 | 27:39:47 | 00:40:68 | 124472 | 127539
10 | 28:20:40 | 03:11:59 | 127540 | 141923
11 | 31:32:24 | 02:48:29 | 141924 | 154552
12 | 34:20:53 | 03:35:45 | 154553 | 170722
13 | 37:56:23 | 01:47:18 | 170723 | 178765
14 | 39:43:41 | 00:55:30 | 178766 | 182920
15 | 40:38:71 | 03:11:30 | 182921 | 197275
16 | 43:50:26 | 02:24:29 | 197276 | 208104
17 | 46:14:55 | 02:16:04 | 208105 | 218308
18 | 48:30:59 | 01:57:10 | 218309 | 227093
19 | 50:27:69 | 00:56:72 | 227094 | 231365
20 | 51:24:66 | 03:40:15 | 231366 | 247880
21 | 55:05:06 | 01:43:64 | 247881 | 255669
22 | 56:48:70 | 02:38:52 | 255670 | 267571
23 | 59:27:47 | 01:00:12 | 267572 | 272083
24 | 60:27:59 | 02:28:46 | 272084 | 283229
25 | 62:56:30 | 02:40:71 | 283230 | 295300
26 | 65:37:26 | 02:44:13 | 295301 | 307613
27 | 68:21:39 | 02:42:62 | 307614 | 319825
28 | 71:04:26 | 02:40:35 | 319826 | 331860
AccurateRip Summary
Disc not found in AccurateRip DB.
All Tracks
Album gain : -0.74 dB
Peak : 0.960815
Statistics
Read error : 0
Jitter error (maybe fixed) : 0
Retry sector count : 0
Damaged sector count : 0
Track 01
Filename : /Volumes/Muzak/Transcode/Hafez Modirzadeh - Post-Chromodal Out! (2012) [FLAC]/01 Facet Thirteen.flac
Pre-gap length : 00:02:00
Track gain : -1.45 dB
Peak : 0.780182
CRC32 hash (test run) : 82796B03
CRC32 hash : 82796B03
CRC32 hash (skip zero) : 035C46C7
AccurateRip v1 signature : 344A6257
AccurateRip v2 signature : 98E1FB8C
->Track not present in AccurateRip database.
Statistics
Read error : 0
Jitter error (maybe fixed) : 0
Retry sector count : 0
Damaged sector count : 0
Track 02
Filename : /Volumes/Muzak/Transcode/Hafez Modirzadeh - Post-Chromodal Out! (2012) [FLAC]/02 Facet Fourteen.flac
Track gain : -2.88 dB
Peak : 0.960724
CRC32 hash (test run) : E2C43B52
CRC32 hash : E2C43B52
CRC32 hash (skip zero) : 17B16C3C
AccurateRip v1 signature : D72C9A12
AccurateRip v2 signature : B2481381
->Track not present in AccurateRip database.
Statistics
Read error : 0
Jitter error (maybe fixed) : 0
Retry sector count : 0
Damaged sector count : 0
Track 03
Filename : /Volumes/Muzak/Transcode/Hafez Modirzadeh - Post-Chromodal Out! (2012) [FLAC]/03 Facet Fifteen.flac
Track gain : 0.77 dB
Peak : 0.654358
CRC32 hash (test run) : 67BB9141
CRC32 hash : 67BB9141
CRC32 hash (skip zero) : 989EEE91
AccurateRip v1 signature : 278988F5
AccurateRip v2 signature : 5B458ABB
->Track not present in AccurateRip database.
Statistics
Read error : 0
Jitter error (maybe fixed) : 0
Retry sector count : 0
Damaged sector count : 0
Track 04
Filename : /Volumes/Muzak/Transcode/Hafez Modirzadeh - Post-Chromodal Out! (2012) [FLAC]/04 Interlude I.flac
Track gain : 4.18 dB
Peak : 0.452026
CRC32 hash (test run) : AF23D499
CRC32 hash : AF23D499
CRC32 hash (skip zero) : 77D3702C
AccurateRip v1 signature : B5A1393E
AccurateRip v2 signature : DA05172E
->Track not present in AccurateRip database.
Statistics
Read error : 0
Jitter error (maybe fixed) : 0
Retry sector count : 0
Damaged sector count : 0
Track 05
Filename : /Volumes/Muzak/Transcode/Hafez Modirzadeh - Post-Chromodal Out! (2012) [FLAC]/05 Facet Sixteen.flac
Track gain : -0.35 dB
Peak : 0.959290
CRC32 hash (test run) : 4D308CF5
CRC32 hash : 4D308CF5
CRC32 hash (skip zero) : 5EB4202D
AccurateRip v1 signature : DCF8D017
AccurateRip v2 signature : 5B80602E
->Track not present in AccurateRip database.
Statistics
Read error : 0
Jitter error (maybe fixed) : 0
Retry sector count : 0
Damaged sector count : 0
Track 06
Filename : /Volumes/Muzak/Transcode/Hafez Modirzadeh - Post-Chromodal Out! (2012) [FLAC]/06 Facet Seventeen.flac
Track gain : -1.52 dB
Peak : 0.960815
CRC32 hash (test run) : 9327492B
CRC32 hash : 9327492B
CRC32 hash (skip zero) : 33CEE04F
AccurateRip v1 signature : EA420E07
AccurateRip v2 signature : DF3A6201
->Track not present in AccurateRip database.
Statistics
Read error : 0
Jitter error (maybe fixed) : 0
Retry sector count : 0
Damaged sector count : 0
Track 07
Filename : /Volumes/Muzak/Transcode/Hafez Modirzadeh - Post-Chromodal Out! (2012) [FLAC]/07 Facet Eighteen.flac
Track gain : 3.89 dB
Peak : 0.528137
CRC32 hash (test run) : 36F9AEE9
CRC32 hash : 36F9AEE9
CRC32 hash (skip zero) : B444F8C5
AccurateRip v1 signature : 1539BABC
AccurateRip v2 signature : 9E84E434
->Track not present in AccurateRip database.
Statistics
Read error : 0
Jitter error (maybe fixed) : 0
Retry sector count : 0
Damaged sector count : 0
Track 08
Filename : /Volumes/Muzak/Transcode/Hafez Modirzadeh - Post-Chromodal Out! (2012) [FLAC]/08 Interlude II.flac
Track gain : 3.51 dB
Peak : 0.430756
CRC32 hash (test run) : 157E08D9
CRC32 hash : 157E08D9
CRC32 hash (skip zero) : 854CEB0F
AccurateRip v1 signature : 8B7C8C8A
AccurateRip v2 signature : D18D7128
->Track not present in AccurateRip database.
Statistics
Read error : 0
Jitter error (maybe fixed) : 0
Retry sector count : 0
Damaged sector count : 0
Track 09
Filename : /Volumes/Muzak/Transcode/Hafez Modirzadeh - Post-Chromodal Out! (2012) [FLAC]/09 Facet Nineteen.flac
Track gain : 1.58 dB
Peak : 0.516205
CRC32 hash (test run) : A55F6462
CRC32 hash : A55F6462
CRC32 hash (skip zero) : 4468D587
AccurateRip v1 signature : 138D932A
AccurateRip v2 signature : 14065C05
->Track not present in AccurateRip database.
Statistics
Read error : 0
Jitter error (maybe fixed) : 0
Retry sector count : 0
Damaged sector count : 0
Track 10
Filename : /Volumes/Muzak/Transcode/Hafez Modirzadeh - Post-Chromodal Out! (2012) [FLAC]/10 Facet Twenty.flac
Track gain : -0.73 dB
Peak : 0.953613
CRC32 hash (test run) : D41BBCD3
CRC32 hash : D41BBCD3
CRC32 hash (skip zero) : A44CF840
AccurateRip v1 signature : C212E886
AccurateRip v2 signature : 511F5FEC
->Track not present in AccurateRip database.
Statistics
Read error : 0
Jitter error (maybe fixed) : 0
Retry sector count : 0
Damaged sector count : 0
Track 11
Filename : /Volumes/Muzak/Transcode/Hafez Modirzadeh - Post-Chromodal Out! (2012) [FLAC]/11 Facet Twenty-One.flac
Track gain : 4.66 dB
Peak : 0.545441
CRC32 hash (test run) : FB48B3E5
CRC32 hash : FB48B3E5
CRC32 hash (skip zero) : 6B4A2BA8
AccurateRip v1 signature : BF9FE9EF
AccurateRip v2 signature : 7A3C94D5
->Track not present in AccurateRip database.
Statistics
Read error : 0
Jitter error (maybe fixed) : 0
Retry sector count : 0
Damaged sector count : 0
Track 12
Filename : /Volumes/Muzak/Transcode/Hafez Modirzadeh - Post-Chromodal Out! (2012) [FLAC]/12 Facet Twenty-Two.flac
Track gain : 2.53 dB
Peak : 0.842957
CRC32 hash (test run) : EBEC8B4A
CRC32 hash : EBEC8B4A
CRC32 hash (skip zero) : 95AC691F
AccurateRip v1 signature : 9C09A0B9
AccurateRip v2 signature : BDE97747
->Track not present in AccurateRip database.
Statistics
Read error : 0
Jitter error (maybe fixed) : 0
Retry sector count : 0
Damaged sector count : 0
Track 13
Filename : /Volumes/Muzak/Transcode/Hafez Modirzadeh - Post-Chromodal Out! (2012) [FLAC]/13 Interlude III.flac
Pre-gap length : 00:00:55
Track gain : 3.20 dB
Peak : 0.437042
CRC32 hash (test run) : 4D74B422
CRC32 hash : 4D74B422
CRC32 hash (skip zero) : 601FE380
AccurateRip v1 signature : 4DB25E32
AccurateRip v2 signature : D598E558
->Track not present in AccurateRip database.
Statistics
Read error : 0
Jitter error (maybe fixed) : 0
Retry sector count : 0
Damaged sector count : 0
Track 14
Filename : /Volumes/Muzak/Transcode/Hafez Modirzadeh - Post-Chromodal Out! (2012) [FLAC]/14 Facet Twenty-Three.flac
Track gain : 1.62 dB
Peak : 0.734436
CRC32 hash (test run) : 796B9CB3
CRC32 hash : 796B9CB3
CRC32 hash (skip zero) : 86923A44
AccurateRip v1 signature : FA8C16C2
AccurateRip v2 signature : 2B7A7853
->Track not present in AccurateRip database.
Statistics
Read error : 0
Jitter error (maybe fixed) : 0
Retry sector count : 0
Damaged sector count : 0
Track 15
Filename : /Volumes/Muzak/Transcode/Hafez Modirzadeh - Post-Chromodal Out! (2012) [FLAC]/15 Facet Twenty-Four.flac
Track gain : -1.41 dB
Peak : 0.904968
CRC32 hash (test run) : 2FFB268D
CRC32 hash : 2FFB268D
CRC32 hash (skip zero) : 4FF9172D
AccurateRip v1 signature : 9560A397
AccurateRip v2 signature : 3720F61D
->Track not present in AccurateRip database.
Statistics
Read error : 0
Jitter error (maybe fixed) : 0
Retry sector count : 0
Damaged sector count : 0
Track 16
Filename : /Volumes/Muzak/Transcode/Hafez Modirzadeh - Post-Chromodal Out! (2012) [FLAC]/16 Interlude IV.flac
Track gain : 1.29 dB
Peak : 0.594269
CRC32 hash (test run) : C33F77ED
CRC32 hash : C33F77ED
CRC32 hash (skip zero) : BDC89857
AccurateRip v1 signature : 8FF5C1D9
AccurateRip v2 signature : C3E656B4
->Track not present in AccurateRip database.
Statistics
Read error : 0
Jitter error (maybe fixed) : 0
Retry sector count : 0
Damaged sector count : 0
Track 17
Filename : /Volumes/Muzak/Transcode/Hafez Modirzadeh - Post-Chromodal Out! (2012) [FLAC]/17 Facet Twenty-Five/Reprise.flac
Track gain : -3.33 dB
Peak : 0.959198
CRC32 hash (test run) : 156F816E
CRC32 hash : 156F816E
CRC32 hash (skip zero) : 6DB7C6C8
AccurateRip v1 signature : 24CAC4C1
AccurateRip v2 signature : C171DDD2
->Track not present in AccurateRip database.
Statistics
Read error : 0
Jitter error (maybe fixed) : 0
Retry sector count : 0
Damaged sector count : 0
Track 18
Filename : /Volumes/Muzak/Transcode/Hafez Modirzadeh - Post-Chromodal Out! (2012) [FLAC]/18 Wolf One.flac
Pre-gap length : 00:02:23
Track gain : 2.19 dB
Peak : 0.574768
CRC32 hash (test run) : 6B80678D
CRC32 hash : 6B80678D
CRC32 hash (skip zero) : A5D90503
AccurateRip v1 signature : 0EB78498
AccurateRip v2 signature : E913DC5D
->Track not present in AccurateRip database.
Statistics
Read error : 0
Jitter error (maybe fixed) : 0
Retry sector count : 0
Damaged sector count : 0
Track 19
Filename : /Volumes/Muzak/Transcode/Hafez Modirzadeh - Post-Chromodal Out! (2012) [FLAC]/19 Wolf Two-Piano Solo.flac
Track gain : 17.75 dB
Peak : 0.125092
CRC32 hash (test run) : A9607B3E
CRC32 hash : A9607B3E
CRC32 hash (skip zero) : 34725B51
AccurateRip v1 signature : F9D5DBC0
AccurateRip v2 signature : BAB9A0E4
->Track not present in AccurateRip database.
Statistics
Read error : 0
Jitter error (maybe fixed) : 0
Retry sector count : 0
Damaged sector count : 0
Track 20
Filename : /Volumes/Muzak/Transcode/Hafez Modirzadeh - Post-Chromodal Out! (2012) [FLAC]/20 Wolf Two-Ensemble.flac
Track gain : 3.59 dB
Peak : 0.495178
CRC32 hash (test run) : D4B66FD7
CRC32 hash : D4B66FD7
CRC32 hash (skip zero) : 3B3527E7
AccurateRip v1 signature : F815116E
AccurateRip v2 signature : 18DB5E65
->Track not present in AccurateRip database.
Statistics
Read error : 0
Jitter error (maybe fixed) : 0
Retry sector count : 0
Damaged sector count : 0
Track 21
Filename : /Volumes/Muzak/Transcode/Hafez Modirzadeh - Post-Chromodal Out! (2012) [FLAC]/21 Wolf Two-Bass Solo.flac
Track gain : 2.64 dB
Peak : 0.533630
CRC32 hash (test run) : 9AD99AEF
CRC32 hash : 9AD99AEF
CRC32 hash (skip zero) : 23842096
AccurateRip v1 signature : 28F2453F
AccurateRip v2 signature : E2BCDF83
->Track not present in AccurateRip database.
Statistics
Read error : 0
Jitter error (maybe fixed) : 0
Retry sector count : 0
Damaged sector count : 0
Track 22
Filename : /Volumes/Muzak/Transcode/Hafez Modirzadeh - Post-Chromodal Out! (2012) [FLAC]/22 Warp Three-Ensemble.flac
Track gain : 0.90 dB
Peak : 0.960815
CRC32 hash (test run) : 93DAAC04
CRC32 hash : 93DAAC04
CRC32 hash (skip zero) : AFDFAF51
AccurateRip v1 signature : C40A6EDD
AccurateRip v2 signature : E707C2D6
->Track not present in AccurateRip database.
Statistics
Read error : 0
Jitter error (maybe fixed) : 0
Retry sector count : 0
Damaged sector count : 0
Track 23
Filename : /Volumes/Muzak/Transcode/Hafez Modirzadeh - Post-Chromodal Out! (2012) [FLAC]/23 Warp Three-Drum Solo.flac
Track gain : 6.21 dB
Peak : 0.522247
CRC32 hash (test run) : 621D850E
CRC32 hash : 621D850E
CRC32 hash (skip zero) : C1B47977
AccurateRip v1 signature : C1486A6C
AccurateRip v2 signature : 65B70337
->Track not present in AccurateRip database.
Statistics
Read error : 0
Jitter error (maybe fixed) : 0
Retry sector count : 0
Damaged sector count : 0
Track 24
Filename : /Volumes/Muzak/Transcode/Hafez Modirzadeh - Post-Chromodal Out! (2012) [FLAC]/24 Warp Four.flac
Track gain : -2.77 dB
Peak : 0.959320
CRC32 hash (test run) : D2C7285F
CRC32 hash : D2C7285F
CRC32 hash (skip zero) : 580FF47F
AccurateRip v1 signature : FD02FB1F
AccurateRip v2 signature : 95FA8C60
->Track not present in AccurateRip database.
Statistics
Read error : 0
Jitter error (maybe fixed) : 0
Retry sector count : 0
Damaged sector count : 0
Track 25
Filename : /Volumes/Muzak/Transcode/Hafez Modirzadeh - Post-Chromodal Out! (2012) [FLAC]/25 Wolf Five-Part One.flac
Track gain : 2.83 dB
Peak : 0.523163
CRC32 hash (test run) : 9F27882C
CRC32 hash : 9F27882C
CRC32 hash (skip zero) : DFAB4118
AccurateRip v1 signature : 0D5BEEAD
AccurateRip v2 signature : 94DCA323
->Track not present in AccurateRip database.
Statistics
Read error : 0
Jitter error (maybe fixed) : 0
Retry sector count : 0
Damaged sector count : 0
Track 26
Filename : /Volumes/Muzak/Transcode/Hafez Modirzadeh - Post-Chromodal Out! (2012) [FLAC]/26 Wolf Five-Part Two.flac
Track gain : 0.20 dB
Peak : 0.762115
CRC32 hash (test run) : 7D9F7D91
CRC32 hash : 7D9F7D91
CRC32 hash (skip zero) : 7AF9773B
AccurateRip v1 signature : 0A9495BE
AccurateRip v2 signature : 7ECF1972
->Track not present in AccurateRip database.
Statistics
Read error : 0
Jitter error (maybe fixed) : 0
Retry sector count : 0
Damaged sector count : 0
Track 27
Filename : /Volumes/Muzak/Transcode/Hafez Modirzadeh - Post-Chromodal Out! (2012) [FLAC]/27 Wolf Six.flac
Track gain : -0.05 dB
Peak : 0.958801
CRC32 hash (test run) : 0571B461
CRC32 hash : 0571B461
CRC32 hash (skip zero) : DCE853B0
AccurateRip v1 signature : 67978284
AccurateRip v2 signature : D539537F
->Track not present in AccurateRip database.
Statistics
Read error : 0
Jitter error (maybe fixed) : 0
Retry sector count : 0
Damaged sector count : 0
Track 28
Filename : /Volumes/Muzak/Transcode/Hafez Modirzadeh - Post-Chromodal Out! (2012) [FLAC]/28 Wolf Seven.flac
Track gain : 5.88 dB
Peak : 0.385132
CRC32 hash (test run) : F89DB51A
CRC32 hash : F89DB51A
CRC32 hash (skip zero) : 72B1DF1D
AccurateRip v1 signature : 2C960766
AccurateRip v2 signature : 685ECEFB
->Track not present in AccurateRip database.
Statistics
Read error : 0
Jitter error (maybe fixed) : 0
Retry sector count : 0
Damaged sector count : 0
No errors occurred
End of status report
 
.cue
TITLE "Post-Chromodal Out!"
PERFORMER "Hafez Modirzadeh"
REM GENRE "Country & Folk"
REM DATE "2012"
REM DISCNUMBER 1
REM TOTALDISCS 1
REM DISCID B411481C
REM REPLAYGAIN_ALBUM_GAIN -0.74 dB
REM REPLAYGAIN_ALBUM_PEAK 0.960815
FILE "01 Facet Thirteen.flac" WAVE
TRACK 01 AUDIO
TITLE "Facet Thirteen"
SONGWRITER "Modirzadeh"
REM REPLAYGAIN_TRACK_GAIN -1.45 dB
REM REPLAYGAIN_TRACK_PEAK 0.780182
INDEX 01 00:00:00
FILE "02 Facet Fourteen.flac" WAVE
TRACK 02 AUDIO
TITLE "Facet Fourteen"
SONGWRITER "Modirzadeh"
REM REPLAYGAIN_TRACK_GAIN -2.88 dB
REM REPLAYGAIN_TRACK_PEAK 0.960724
INDEX 01 00:00:00
FILE "03 Facet Fifteen.flac" WAVE
TRACK 03 AUDIO
TITLE "Facet Fifteen"
SONGWRITER "Modirzadeh"
REM REPLAYGAIN_TRACK_GAIN 0.77 dB
REM REPLAYGAIN_TRACK_PEAK 0.654358
INDEX 01 00:00:00
FILE "04 Interlude I.flac" WAVE
TRACK 04 AUDIO
TITLE "Interlude I"
SONGWRITER "Modirzadeh"
REM REPLAYGAIN_TRACK_GAIN 4.18 dB
REM REPLAYGAIN_TRACK_PEAK 0.452026
INDEX 01 00:00:00
FILE "05 Facet Sixteen.flac" WAVE
TRACK 05 AUDIO
TITLE "Facet Sixteen"
SONGWRITER "Modirzadeh"
REM REPLAYGAIN_TRACK_GAIN -0.35 dB
REM REPLAYGAIN_TRACK_PEAK 0.959290
INDEX 01 00:00:00
FILE "06 Facet Seventeen.flac" WAVE
TRACK 06 AUDIO
TITLE "Facet Seventeen"
SONGWRITER "Modirzadeh"
REM REPLAYGAIN_TRACK_GAIN -1.52 dB
REM REPLAYGAIN_TRACK_PEAK 0.960815
INDEX 01 00:00:00
FILE "07 Facet Eighteen.flac" WAVE
TRACK 07 AUDIO
TITLE "Facet Eighteen"
SONGWRITER "Modirzadeh"
REM REPLAYGAIN_TRACK_GAIN 3.89 dB
REM REPLAYGAIN_TRACK_PEAK 0.528137
INDEX 01 00:00:00
FILE "08 Interlude II.flac" WAVE
TRACK 08 AUDIO
TITLE "Interlude II"
SONGWRITER "Modirzadeh"
REM REPLAYGAIN_TRACK_GAIN 3.51 dB
REM REPLAYGAIN_TRACK_PEAK 0.430756
INDEX 01 00:00:00
FILE "09 Facet Nineteen.flac" WAVE
TRACK 09 AUDIO
TITLE "Facet Nineteen"
SONGWRITER "Modirzadeh"
REM REPLAYGAIN_TRACK_GAIN 1.58 dB
REM REPLAYGAIN_TRACK_PEAK 0.516205
INDEX 01 00:00:00
FILE "10 Facet Twenty.flac" WAVE
TRACK 10 AUDIO
TITLE "Facet Twenty"
SONGWRITER "Modirzadeh"
REM REPLAYGAIN_TRACK_GAIN -0.73 dB
REM REPLAYGAIN_TRACK_PEAK 0.953613
INDEX 01 00:00:00
FILE "11 Facet Twenty-One.flac" WAVE
TRACK 11 AUDIO
TITLE "Facet Twenty-One"
SONGWRITER "Modirzadeh"
REM REPLAYGAIN_TRACK_GAIN 4.66 dB
REM REPLAYGAIN_TRACK_PEAK 0.545441
INDEX 01 00:00:00
FILE "12 Facet Twenty-Two.flac" WAVE
TRACK 12 AUDIO
TITLE "Facet Twenty-Two"
SONGWRITER "Modirzadeh"
REM REPLAYGAIN_TRACK_GAIN 2.53 dB
REM REPLAYGAIN_TRACK_PEAK 0.842957
INDEX 01 00:00:00
TRACK 13 AUDIO
TITLE "Interlude III"
SONGWRITER "Modirzadeh"
REM REPLAYGAIN_TRACK_GAIN 3.20 dB
REM REPLAYGAIN_TRACK_PEAK 0.437042
INDEX 00 03:34:65
FILE "13 Interlude III.flac" WAVE
INDEX 01 00:00:00
FILE "14 Facet Twenty-Three.flac" WAVE
TRACK 14 AUDIO
TITLE "Facet Twenty-Three"
SONGWRITER "Modirzadeh"
REM REPLAYGAIN_TRACK_GAIN 1.62 dB
REM REPLAYGAIN_TRACK_PEAK 0.734436
INDEX 01 00:00:00
FILE "15 Facet Twenty-Four.flac" WAVE
TRACK 15 AUDIO
TITLE "Facet Twenty-Four"
SONGWRITER "Modirzadeh"
REM REPLAYGAIN_TRACK_GAIN -1.41 dB
REM REPLAYGAIN_TRACK_PEAK 0.904968
INDEX 01 00:00:00
FILE "16 Interlude IV.flac" WAVE
TRACK 16 AUDIO
TITLE "Interlude IV"
SONGWRITER "Modirzadeh"
REM REPLAYGAIN_TRACK_GAIN 1.29 dB
REM REPLAYGAIN_TRACK_PEAK 0.594269
INDEX 01 00:00:00
FILE "17 Facet Twenty-Five/Reprise.flac" WAVE
TRACK 17 AUDIO
TITLE "Facet Twenty-Five/Reprise"
SONGWRITER "Modirzadeh"
REM REPLAYGAIN_TRACK_GAIN -3.33 dB
REM REPLAYGAIN_TRACK_PEAK 0.959198
INDEX 01 00:00:00
TRACK 18 AUDIO
TITLE "Wolf One"
SONGWRITER "James Norton"
REM REPLAYGAIN_TRACK_GAIN 2.19 dB
REM REPLAYGAIN_TRACK_PEAK 0.574768
INDEX 00 02:13:56
FILE "18 Wolf One.flac" WAVE
INDEX 01 00:00:00
FILE "19 Wolf Two-Piano Solo.flac" WAVE
TRACK 19 AUDIO
TITLE "Wolf Two-Piano Solo"
SONGWRITER "James Norton"
REM REPLAYGAIN_TRACK_GAIN 17.75 dB
REM REPLAYGAIN_TRACK_PEAK 0.125092
INDEX 01 00:00:00
FILE "20 Wolf Two-Ensemble.flac" WAVE
TRACK 20 AUDIO
TITLE "Wolf Two-Ensemble"
SONGWRITER "James Norton"
REM REPLAYGAIN_TRACK_GAIN 3.59 dB
REM REPLAYGAIN_TRACK_PEAK 0.495178
INDEX 01 00:00:00
FILE "21 Wolf Two-Bass Solo.flac" WAVE
TRACK 21 AUDIO
TITLE "Wolf Two-Bass Solo"
SONGWRITER "James Norton"
REM REPLAYGAIN_TRACK_GAIN 2.64 dB
REM REPLAYGAIN_TRACK_PEAK 0.533630
INDEX 01 00:00:00
FILE "22 Warp Three-Ensemble.flac" WAVE
TRACK 22 AUDIO
TITLE "Warp Three-Ensemble"
SONGWRITER "James Norton"
REM REPLAYGAIN_TRACK_GAIN 0.90 dB
REM REPLAYGAIN_TRACK_PEAK 0.960815
INDEX 01 00:00:00
FILE "23 Warp Three-Drum Solo.flac" WAVE
TRACK 23 AUDIO
TITLE "Warp Three-Drum Solo"
SONGWRITER "James Norton"
REM REPLAYGAIN_TRACK_GAIN 6.21 dB
REM REPLAYGAIN_TRACK_PEAK 0.522247
INDEX 01 00:00:00
FILE "24 Warp Four.flac" WAVE
TRACK 24 AUDIO
TITLE "Warp Four"
SONGWRITER "James Norton"
REM REPLAYGAIN_TRACK_GAIN -2.77 dB
REM REPLAYGAIN_TRACK_PEAK 0.959320
INDEX 01 00:00:00
FILE "25 Wolf Five-Part One.flac" WAVE
TRACK 25 AUDIO
TITLE "Wolf Five-Part One"
SONGWRITER "James Norton"
REM REPLAYGAIN_TRACK_GAIN 2.83 dB
REM REPLAYGAIN_TRACK_PEAK 0.523163
INDEX 01 00:00:00
FILE "26 Wolf Five-Part Two.flac" WAVE
TRACK 26 AUDIO
TITLE "Wolf Five-Part Two"
SONGWRITER "James Norton"
REM REPLAYGAIN_TRACK_GAIN 0.20 dB
REM REPLAYGAIN_TRACK_PEAK 0.762115
INDEX 01 00:00:00
FILE "27 Wolf Six.flac" WAVE
TRACK 27 AUDIO
TITLE "Wolf Six"
SONGWRITER "James Norton"
REM REPLAYGAIN_TRACK_GAIN -0.05 dB
REM REPLAYGAIN_TRACK_PEAK 0.958801
INDEX 01 00:00:00
FILE "28 Wolf Seven.flac" WAVE
TRACK 28 AUDIO
TITLE "Wolf Seven"
SONGWRITER "James Norton"
REM REPLAYGAIN_TRACK_GAIN 5.88 dB
REM REPLAYGAIN_TRACK_PEAK 0.385132
INDEX 01 00:00:00

другие релизы
Any questions -> support@pro-jazz.com. По всем вопросам пишите -> support@pro-jazz.com
03:04
150
Нет комментариев. Ваш будет первым!