Вы используете незарегистрированную версию компонента "Вкладки"!

Поиск

(avant-garde, free jazz) Amir ElSaffar and Hafez Modirzadeh - Radif Suite [2010], FLAC (tracks+.cue), lossless

(avant-garde, free jazz) Amir ElSaffar and Hafez Modirzadeh - Radif Suite [2010], FLAC (tracks+.cue), lossless
Треклист:


Amir ElSaffar and Hafez Modirzadeh - Radif Suite [2010]

Жанр: avant-garde, free jazz
Год выпуска: 2010
Издатель (лейбл):Pi Recordings
Формат: FLAC (tracks+.cue)
Битрейт аудио: lossless
Продолжительность 1`09`17
Источник: what.cd
Alex Cline Drums, Gong
Mark Dresser Bass
Amir El Saffar Trumpet, Vocals, Producer, Liner Notes
Hafez Modirzadeh Sax (Tenor), Producer, Liner Notes, Diagrams

tracks

Radif-E Kayhan:
1 Facet One Modirzadeh 2:34
2 Facet Two Modirzadeh 2:39
3 Facets Three/Four Modirzadeh 3:21
4 Facets Five/Six Modirzadeh 4:48
5 Facets Seven/Eight Modirzadeh 5:41
6 Facet Nine Modirzadeh 1:48
7 Facet Ten Modirzadeh 5:49
8 Facets Eleven/Twelve Modirzadeh 3:53
Copper Suite:
9 Introduction - Copper Refraction El Saffar 2:23
10 Post-Idiomatic Blues/Cells A El Saffar 7:32
11 Doves Over Zion (Dream of the Beloved)/Duet Interlude El Saffar 5:18
12 Uganda/Trio Interlude El Saffar 4:39
13 Bird of Prey El Saffar 3:42
14 Awj/Ancestral Memory El Saffar 5:07
15 7 Quintuplets/Triptych/Bass Solo El Saffar 5:22
16 All Said and Done/Sirens/Reverence El Saffar 4:32


 
.log
Exact Audio Copy V0.99 prebeta 4 from 23. January 2008
EAC extraction logfile from 13. April 2010, 18:03
UnknowAmir Elsaffar & Hafez Mordizadeh / Radif suite
Used drive : _NEC DVD_RW ND-4571A Adapter: 0 ID: 1
Read mode : Secure
Utilize accurate stream : Yes
Defeat audio cache : No
Make use of C2 pointers : Yes
Read offset correction : 48
Overread into Lead-In and Lead-Out : No
Fill up missing offset samples with silence : Yes
Delete leading and trailing silent blocks : No
Null samples used in CRC calculations : Yes
Used interface : Installed external ASPI interface
Gap handling : Appended to previous track
Used output format : User Defined Encoder
Selected bitrate : 256 kBit/s
Quality : High
Add ID3 tag : Yes
Command line compressor : C:\Program Files\FLAC\flac.exe
Additional command line options : -8 -V -T "artist=%a" -T "title=%t" -T "album=%g" -T "date=%y" -T "tracknumber=%n" -T "genre=%m" %s
TOC of the extracted CD
Track | Start | Length | Start sector | End sector
---------------------------------------------------------
1 | 0:00.00 | 2:34.31 | 0 | 11580
2 | 2:34.31 | 2:39.08 | 11581 | 23513
3 | 5:13.39 | 3:21.46 | 23514 | 38634
4 | 8:35.10 | 4:48.26 | 38635 | 60260
5 | 13:23.36 | 5:41.67 | 60261 | 85902
6 | 19:05.28 | 1:48.17 | 85903 | 94019
7 | 20:53.45 | 5:49.01 | 94020 | 120195
8 | 26:42.46 | 3:53.56 | 120196 | 137726
9 | 30:36.27 | 2:23.57 | 137727 | 148508
10 | 33:00.09 | 7:32.72 | 148509 | 182480
11 | 40:33.06 | 5:18.54 | 182481 | 206384
12 | 45:51.60 | 4:39.26 | 206385 | 227335
13 | 50:31.11 | 3:42.73 | 227336 | 244058
14 | 54:14.09 | 5:07.49 | 244059 | 267132
15 | 59:21.58 | 5:22.49 | 267133 | 291331
16 | 64:44.32 | 4:32.29 | 291332 | 311760
Track 1
Filename C:\A. Lab\00 new rips\Amir Elsaffar & Hafez Mordizadeh - Radif suite - 2010\01 - Track01.wav
Pre-gap length 0:00:02.00
Peak level 96.6 %
Track quality 100.0 %
Test CRC BFE5E8AF
Copy CRC BFE5E8AF
Track not present in AccurateRip database
Copy OK
Track 2
Filename C:\A. Lab\00 new rips\Amir Elsaffar & Hafez Mordizadeh - Radif suite - 2010\02 - Track02.wav
Peak level 96.6 %
Track quality 100.0 %
Test CRC BACE5A3C
Copy CRC BACE5A3C
Track not present in AccurateRip database
Copy OK
Track 3
Filename C:\A. Lab\00 new rips\Amir Elsaffar & Hafez Mordizadeh - Radif suite - 2010\03 - Track03.wav
Peak level 80.4 %
Track quality 100.0 %
Test CRC 4206EB23
Copy CRC 4206EB23
Track not present in AccurateRip database
Copy OK
Track 4
Filename C:\A. Lab\00 new rips\Amir Elsaffar & Hafez Mordizadeh - Radif suite - 2010\04 - Track04.wav
Peak level 96.6 %
Track quality 100.0 %
Test CRC FB0BB468
Copy CRC FB0BB468
Track not present in AccurateRip database
Copy OK
Track 5
Filename C:\A. Lab\00 new rips\Amir Elsaffar & Hafez Mordizadeh - Radif suite - 2010\05 - Track05.wav
Peak level 96.6 %
Track quality 100.0 %
Test CRC 262CC560
Copy CRC 262CC560
Track not present in AccurateRip database
Copy OK
Track 6
Filename C:\A. Lab\00 new rips\Amir Elsaffar & Hafez Mordizadeh - Radif suite - 2010\06 - Track06.wav
Peak level 66.4 %
Track quality 100.0 %
Test CRC 6218F5E9
Copy CRC 6218F5E9
Track not present in AccurateRip database
Copy OK
Track 7
Filename C:\A. Lab\00 new rips\Amir Elsaffar & Hafez Mordizadeh - Radif suite - 2010\07 - Track07.wav
Peak level 96.6 %
Track quality 99.9 %
Test CRC 532A8ECB
Copy CRC 532A8ECB
Track not present in AccurateRip database
Copy OK
Track 8
Filename C:\A. Lab\00 new rips\Amir Elsaffar & Hafez Mordizadeh - Radif suite - 2010\08 - Track08.wav
Peak level 96.6 %
Track quality 100.0 %
Test CRC 33183C1A
Copy CRC 33183C1A
Track not present in AccurateRip database
Copy OK
Track 9
Filename C:\A. Lab\00 new rips\Amir Elsaffar & Hafez Mordizadeh - Radif suite - 2010\09 - Track09.wav
Pre-gap length 0:00:07.00
Peak level 90.7 %
Track quality 99.8 %
Test CRC E52A9CE3
Copy CRC E52A9CE3
Track not present in AccurateRip database
Copy OK
Track 10
Filename C:\A. Lab\00 new rips\Amir Elsaffar & Hafez Mordizadeh - Radif suite - 2010\10 - Track10.wav
Peak level 96.6 %
Track quality 100.0 %
Test CRC A8CA9ABD
Copy CRC A8CA9ABD
Track not present in AccurateRip database
Copy OK
Track 11
Filename C:\A. Lab\00 new rips\Amir Elsaffar & Hafez Mordizadeh - Radif suite - 2010\11 - Track11.wav
Peak level 56.1 %
Track quality 99.9 %
Test CRC 14D2643B
Copy CRC 14D2643B
Track not present in AccurateRip database
Copy OK
Track 12
Filename C:\A. Lab\00 new rips\Amir Elsaffar & Hafez Mordizadeh - Radif suite - 2010\12 - Track12.wav
Peak level 96.6 %
Track quality 100.0 %
Test CRC 2EEE9E92
Copy CRC 2EEE9E92
Track not present in AccurateRip database
Copy OK
Track 13
Filename C:\A. Lab\00 new rips\Amir Elsaffar & Hafez Mordizadeh - Radif suite - 2010\13 - Track13.wav
Peak level 96.6 %
Track quality 100.0 %
Test CRC A725B543
Copy CRC A725B543
Track not present in AccurateRip database
Copy OK
Track 14
Filename C:\A. Lab\00 new rips\Amir Elsaffar & Hafez Mordizadeh - Radif suite - 2010\14 - Track14.wav
Peak level 91.4 %
Track quality 100.0 %
Test CRC 58CCEB0E
Copy CRC 58CCEB0E
Track not present in AccurateRip database
Copy OK
Track 15
Filename C:\A. Lab\00 new rips\Amir Elsaffar & Hafez Mordizadeh - Radif suite - 2010\15 - Track15.wav
Peak level 96.6 %
Track quality 100.0 %
Test CRC B137CC82
Copy CRC B137CC82
Track not present in AccurateRip database
Copy OK
Track 16
Filename C:\A. Lab\00 new rips\Amir Elsaffar & Hafez Mordizadeh - Radif suite - 2010\16 - Track16.wav
Peak level 96.6 %
Track quality 100.0 %
Test CRC F5109BEB
Copy CRC F5109BEB
Track not present in AccurateRip database
Copy OK
None of the tracks are present in the AccurateRip database
No errors occurred
End of status report
 
.cue
REM COMMENT "CUETools generated dummy CUE sheet"
FILE "01 - Facet One.flac" WAVE
TRACK 01 AUDIO
INDEX 01 00:00:00
FILE "02 - Facet Two.flac" WAVE
TRACK 02 AUDIO
INDEX 01 00:00:00
FILE "03 - Facets Three, Four.flac" WAVE
TRACK 03 AUDIO
INDEX 01 00:00:00
FILE "04 - Facets Five, Six.flac" WAVE
TRACK 04 AUDIO
INDEX 01 00:00:00
FILE "05 - Facets Seven, Eight.flac" WAVE
TRACK 05 AUDIO
INDEX 01 00:00:00
FILE "06 - Facet Nine.flac" WAVE
TRACK 06 AUDIO
INDEX 01 00:00:00
FILE "07 - Facet Ten.flac" WAVE
TRACK 07 AUDIO
INDEX 01 00:00:00
FILE "08 - Facets Eleven, Twelve.flac" WAVE
TRACK 08 AUDIO
INDEX 01 00:00:00
FILE "09 - Introduction. Copper Refraction.flac" WAVE
TRACK 09 AUDIO
INDEX 01 00:00:00
FILE "10 - Post-Idiomatic Blues, Cells A.flac" WAVE
TRACK 10 AUDIO
INDEX 01 00:00:00
FILE "11 - Doves Over Zion (Dream Of The Beloved), Duet Interlude.flac" WAVE
TRACK 11 AUDIO
INDEX 01 00:00:00
FILE "12 - Uganda, Trio Interlude.flac" WAVE
TRACK 12 AUDIO
INDEX 01 00:00:00
FILE "13 - Bird Of Prey.flac" WAVE
TRACK 13 AUDIO
INDEX 01 00:00:00
FILE "14 - Awj, Ancestral Memory.flac" WAVE
TRACK 14 AUDIO
INDEX 01 00:00:00
FILE "15 - 7 Quintuplets, Triptych, Bass Solo.flac" WAVE
TRACK 15 AUDIO
INDEX 01 00:00:00
FILE "16 - All Said And Done, Sirens, Reverence.flac" WAVE
TRACK 16 AUDIO
INDEX 01 00:00:00
 
.accurip
[CUETools log; Date: 18/08/12 13:41:31; Version: 2.1.2a]
[CTDB TOCID: 1qwkVF02NReG7NYH7mZqPgrfXV4-] disk not present in database.
[AccurateRip ID: 00256591-01cd543a-e0103c10] found.
Track [ CRC ] Status
01 [ee469cfd] (4/4) Accurately ripped
02 [4e86ecc1] (4/4) Accurately ripped
03 [f9907414] (4/4) Accurately ripped
04 [95a523f0] (4/4) Accurately ripped
05 [73cfcc4d] (4/4) Accurately ripped
06 [9120be40] (4/4) Accurately ripped
07 [89979e63] (4/4) Accurately ripped
08 [932cc903] (4/4) Accurately ripped
09 [a0b26cc5] (4/4) Accurately ripped
10 [6452fa8c] (4/4) Accurately ripped
11 [72dbc27e] (4/4) Accurately ripped
12 [e8271843] (4/4) Accurately ripped
13 [22258996] (4/4) Accurately ripped
14 [74b972be] (4/4) Accurately ripped
15 [7962ed5e] (4/4) Accurately ripped
16 [3856fef0] (4/4) Accurately ripped
Track Peak [ CRC32 ] [W/O NULL] [ LOG ]
-- 96.6 [C0ADCCA3] [EA6908DE]
01 96.6 [BFE5E8AF] [7D497728] CRC32
02 96.6 [BACE5A3C] [4FAC3792] CRC32
03 80.4 [4206EB23] [466892F3] CRC32
04 96.6 [FB0BB468] [EAAE0AB8] CRC32
05 96.6 [262CC560] [9DE4F49F] CRC32
06 66.4 [6218F5E9] [CAE364FF] CRC32
07 96.6 [532A8ECB] [DAD4C07C] CRC32
08 96.6 [33183C1A] [8F1EFC45] CRC32
09 90.7 [E52A9CE3] [B3CC5B33] CRC32
10 96.6 [A8CA9ABD] [37D719D5] CRC32
11 56.1 [14D2643B] [6C1E8D12] CRC32
12 96.6 [2EEE9E92] [F92CEB04] CRC32
13 96.6 [A725B543] [6BF55446] CRC32
14 91.4 [58CCEB0E] [27FE5DD6] CRC32
15 96.6 [B137CC82] [AB185274] CRC32
16 96.6 [F5109BEB] [8D0985F5] CRC32

другие релизы
По всем вопросам пишите личное сообщение пользователю M0p94ok.
03:03
180
Нет комментариев. Ваш будет первым!