Вы используете незарегистрированную версию компонента "Вкладки"!

Поиск

(Avant-Garde Jazz) Joey Baron - Down Home (w/ Arthur Blythe, Ron Carter, Bill Frisell) - 1997, FLAC (tracks+.cue), lossless

(Avant-Garde Jazz) Joey Baron - Down Home (w/ Arthur Blythe, Ron Carter, Bill Frisell) - 1997, FLAC (tracks+.cue), lossless
Треклист:
Joey Baron - Down Home
Жанр: Avant-Garde Jazz
Страна-производитель диска: Австрия
Год издания: 1997
Издатель (лейбл): Intuition
Номер по каталогу: INT 3503 2
Страна: США
Аудиокодек: FLAC (*.flac)
Тип рипа: tracks+.cue
Битрейт аудио: lossless
Продолжительность: 45:24
Источник (релизер): Jazz Crew (hqshare)
Наличие сканов в содержимом раздачи: да
Треклист:
01. Mighty Fine (Baron) - 5:18
02. Little Boy (Baron) - 8:53
03. Wide Load (Baron) - 8:35
04. The Crock Pot (Baron) - 5:07
05. What (Baron) - 8:00
06. Listen to the Woman (Baron) - 1:47
07. Aren't We All? (Baron) - 6:40
08. Supposing (Baron) - 1:04
Состав:
Joey Baron - drums
Arthur Blythe - alto saxophone
Ron Carter - bass
Bill Frisell - guitar
Recorded at Avatar Studios, New York City.
 
Лог создания рипа
EAC extraction logfile from 18. February 2006, 17:51 for CD
Joey Baron / Down Home
Used drive : HL-DT-STDVD-ROM GDR8162B Adapter: 1 ID: 1
Read mode : Secure with NO C2, accurate stream, disable cache
Read offset correction : 102
Overread into Lead-In and Lead-Out : Yes
Used output format : Internal WAV Routines
44.100 Hz; 16 Bit; Stereo
Other options :
Fill up missing offset samples with silence : Yes
Delete leading and trailing silent blocks : No
Installed external ASPI interface
Track 1
Filename D:\Download en cours\01 - Mighty Fine.wav
Pre-gap length 0:00:02.00
Peak level 89.1 %
Track quality 100.0 %
Test CRC 0D00BC62
Copy CRC 0D00BC62
Copy OK
Track 2
Filename D:\Download en cours\02 - Little Boy.wav
Pre-gap length 0:00:02.13
Peak level 100.0 %
Track quality 100.0 %
Test CRC 1938FF0B
Copy CRC 1938FF0B
Copy OK
Track 3
Filename D:\Download en cours\03 - Wide Load.wav
Pre-gap length 0:00:00.96
Peak level 88.1 %
Track quality 100.0 %
Test CRC 8FA9FE3C
Copy CRC 8FA9FE3C
Copy OK
Track 4
Filename D:\Download en cours\04 - The Crock Pot.wav
Peak level 100.0 %
Track quality 100.0 %
Test CRC B2009FA6
Copy CRC B2009FA6
Copy OK
Track 5
Filename D:\Download en cours\05 - What.wav
Pre-gap length 0:00:00.73
Peak level 96.4 %
Track quality 99.9 %
Test CRC 22E4EA92
Copy CRC 22E4EA92
Copy OK
Track 6
Filename D:\Download en cours\06 - Listen to the Woman.wav
Pre-gap length 0:00:02.49
Peak level 75.0 %
Track quality 100.0 %
Test CRC 70DB1F12
Copy CRC 70DB1F12
Copy OK
Track 7
Filename D:\Download en cours\07 - Aren't We All .wav
Peak level 100.0 %
Track quality 100.0 %
Test CRC C99A2415
Copy CRC C99A2415
Copy OK
Track 8
Filename D:\Download en cours\08 - Supposing.wav
Pre-gap length 0:00:00.73
Peak level 100.0 %
Track quality 100.0 %
Test CRC EA9097DF
Copy CRC EA9097DF
Copy OK
No errors occured
End of status report
 
Содержание индексной карты (.CUE)
PERFORMER "Joey Baron"
TITLE "Down Home"
FILE "01 - Mighty Fine.wav" WAVE
TRACK 01 AUDIO
TITLE "Mighty Fine"
PERFORMER "Joey Baron"
INDEX 01 00:00:00
TRACK 02 AUDIO
TITLE "Little Boy"
PERFORMER "Joey Baron"
INDEX 00 05:15:67
FILE "02 - Little Boy.wav" WAVE
INDEX 01 00:00:00
TRACK 03 AUDIO
TITLE "Wide Load"
PERFORMER "Joey Baron"
INDEX 00 08:52:53
FILE "03 - Wide Load.wav" WAVE
INDEX 01 00:00:00
FILE "04 - The Crock Pot.wav" WAVE
TRACK 04 AUDIO
TITLE "The Crock Pot"
PERFORMER "Joey Baron"
INDEX 01 00:00:00
TRACK 05 AUDIO
TITLE "What"
PERFORMER "Joey Baron"
INDEX 00 05:06:27
FILE "05 - What.wav" WAVE
INDEX 01 00:00:00
TRACK 06 AUDIO
TITLE "Listen to the Woman"
PERFORMER "Joey Baron"
INDEX 00 07:58:23
FILE "06 - Listen to the Woman.wav" WAVE
INDEX 01 00:00:00
FILE "07 - Aren't We All.wav" WAVE
TRACK 07 AUDIO
TITLE "Aren't We All?"
PERFORMER "Joey Baron"
INDEX 01 00:00:00
TRACK 08 AUDIO
TITLE "Supposing"
PERFORMER "Joey Baron"
INDEX 00 06:40:17
FILE "08 - Supposing.wav" WAVE
INDEX 01 00:00:00
 
Лог проверки качества
auCDtect: CD records authenticity detector, version 0.8.2
Copyright (c) 2004 Oleg Berngardt. All rights reserved.
Copyright (c) 2004 Alexander Djourik. All rights reserved.
------------------------------------------------------------
Processing file: [01 - Mighty Fine.wav]
Detected average hi-boundary frequency: 2.036526e+004 Hz
Detected average lo-boundary frequency: 1.426918e+004 Hz
Detected average hi-cut frequency: 2.169307e+004 Hz
Detected average lo-cut frequency: 1.385669e+004 Hz
Maximum probablis boundary frequency: 2.189100e+004 Hz
Coefficient of nonlinearity of a phase: 2.007897e-001
First order smothness: 4.043619e-001
Second order smothness: 6.062482e-001
------------------------------------------------------------
This track looks like CDDA with probability 100%
------------------------------------------------------------
Processing file: [02 - Little Boy.wav]
Detected average hi-boundary frequency: 2.086857e+004 Hz
Detected average lo-boundary frequency: 1.355261e+004 Hz
Detected average hi-cut frequency: 2.191233e+004 Hz
Detected average lo-cut frequency: 1.958608e+004 Hz
Maximum probablis boundary frequency: 2.189100e+004 Hz
Coefficient of nonlinearity of a phase: 1.014308e+000
First order smothness: 3.649686e-001
Second order smothness: 8.504885e-001
------------------------------------------------------------
This track looks like CDDA with probability 100%
------------------------------------------------------------
Processing file: [03 - Wide Load.wav]
Detected average hi-boundary frequency: 2.030548e+004 Hz
Detected average lo-boundary frequency: 1.374647e+004 Hz
Detected average hi-cut frequency: 2.173302e+004 Hz
Detected average lo-cut frequency: 1.145775e+004 Hz
Maximum probablis boundary frequency: 2.189100e+004 Hz
Coefficient of nonlinearity of a phase: 1.491306e-001
First order smothness: 4.631199e-001
Second order smothness: 4.526601e-001
------------------------------------------------------------
This track looks like CDDA with probability 100%
------------------------------------------------------------
Processing file: [04 - The Crock Pot.wav]
Detected average hi-boundary frequency: 2.020478e+004 Hz
Detected average lo-boundary frequency: 1.432320e+004 Hz
Detected average hi-cut frequency: 2.161283e+004 Hz
Detected average lo-cut frequency: 8.591715e+003 Hz
Maximum probablis boundary frequency: 2.189100e+004 Hz
Coefficient of nonlinearity of a phase: 4.849048e-001
First order smothness: 3.755684e-001
Second order smothness: 4.843892e-001
------------------------------------------------------------
This track looks like CDDA with probability 100%
------------------------------------------------------------
Processing file: [05 - What.wav]
Detected average hi-boundary frequency: 2.032897e+004 Hz
Detected average lo-boundary frequency: 1.355077e+004 Hz
Detected average hi-cut frequency: 2.172059e+004 Hz
Detected average lo-cut frequency: 1.312889e+004 Hz
Maximum probablis boundary frequency: 2.189100e+004 Hz
Coefficient of nonlinearity of a phase: 3.024077e-001
First order smothness: 3.934331e-001
Second order smothness: 4.985428e-001
------------------------------------------------------------
This track looks like CDDA with probability 100%
------------------------------------------------------------
Processing file: [06 - Listen to the Woman.wav]
Detected average hi-boundary frequency: 2.087983e+004 Hz
Detected average lo-boundary frequency: 1.185626e+004 Hz
Detected average hi-cut frequency: 2.195671e+004 Hz
Detected average lo-cut frequency: 1.925463e+004 Hz
Maximum probablis boundary frequency: 2.189100e+004 Hz
Coefficient of nonlinearity of a phase: 3.731804e-001
First order smothness: 4.341421e-001
Second order smothness: 8.648180e-001
------------------------------------------------------------
This track looks like CDDA with probability 100%
------------------------------------------------------------
Processing file: [07 - Aren't We All.wav]
Detected average hi-boundary frequency: 2.058630e+004 Hz
Detected average lo-boundary frequency: 1.374377e+004 Hz
Detected average hi-cut frequency: 2.190623e+004 Hz
Detected average lo-cut frequency: 1.682172e+004 Hz
Maximum probablis boundary frequency: 2.189100e+004 Hz
Coefficient of nonlinearity of a phase: 8.282766e-001
First order smothness: 3.174014e-001
Second order smothness: 7.911833e-001
------------------------------------------------------------
This track looks like CDDA with probability 100%
------------------------------------------------------------
Processing file: [08 - Supposing.wav]
Detected average hi-boundary frequency: 2.040505e+004 Hz
Detected average lo-boundary frequency: 1.341022e+004 Hz
Detected average hi-cut frequency: 2.177040e+004 Hz
Detected average lo-cut frequency: 1.519455e+004 Hz
Maximum probablis boundary frequency: 2.189100e+004 Hz
Coefficient of nonlinearity of a phase: 6.953358e-001
First order smothness: 3.672566e-001
Second order smothness: 4.955752e-001
------------------------------------------------------------
This track looks like CDDA with probability 100%
 
Отчет CUETools
[CUETools log; Date: 15.08.2012 15:50:09; Version: 2.1.4]
[CTDB TOCID: XPmLkHrX8opnHsDWY62_vsN_JFg-] found.
Track | CTDB Status
1 | (2/2) Accurately ripped
2 | (2/2) Accurately ripped
3 | (2/2) Accurately ripped
4 | (2/2) Accurately ripped
5 | (2/2) Accurately ripped
6 | (2/2) Accurately ripped
7 | (2/2) Accurately ripped
8 | (2/2) Accurately ripped
[AccurateRip ID: 00100ae7-0068e108-6c0aa708] found.
Track [ CRC | V2 ] Status
01 [258a49f2|29e3e9bc] (16+04/20) Accurately ripped
02 [f7225f2d|e8ccaee6] (16+04/20) Accurately ripped
03 [fbc14599|d6b086f6] (16+04/20) Accurately ripped
04 [906063ee|0c5fdc23] (16+04/20) Accurately ripped
05 [fbce8904|c233ff8f] (16+04/20) Accurately ripped
06 [c7cab26a|0cecb241] (16+04/20) Accurately ripped
07 [7b68b373|1dba60f1] (16+04/20) Accurately ripped
08 [b92497d9|67073e95] (16+04/20) Accurately ripped
Track Peak [ CRC32 ] [W/O NULL] [ LOG ]
-- 99,9 [F164BD72] [90F861D9]
01 89,1 [0D00BC62] [CDAD74E4] CRC32
02 99,9 [1938FF0B] [BC94D9D0] CRC32
03 88,1 [8FA9FE3C] [189483F5] CRC32
04 99,9 [B2009FA6] [98C7C186] CRC32
05 96,4 [22E4EA92] [02B69304] CRC32
06 75,0 [70DB1F12] [17AEA6BA] CRC32
07 99,9 [C99A2415] [4A279924] CRC32
08 99,9 [EA9097DF] [64F703D8] CRC32
 
Review by Scott Yanow
Drummer Joey Baron teams up with three notable all-stars on this set: altoist Arthur Blythe, guitarist Bill Frisell and bassist Ron Carter. Most of the music (all eight songs are Baron's originals) are fairly straight-ahead and more conservative than one might expect. Blythe and Frisell sound fine together (they should team up more often) and each of the four musicians gets his moment to star. Not quite a classic but certainly worthwhile.
Взамен ушедшей в архив.
Any questions -> support@pro-jazz.com. По всем вопросам пишите -> support@pro-jazz.com
03:02
243
Нет комментариев. Ваш будет первым!