Вы используете незарегистрированную версию компонента "Вкладки"!

Поиск

(Free Improvisation) ICP Orchestra - ICP 049 - 2010, FLAC (tracks+.cue), lossless

(Free Improvisation) ICP Orchestra - ICP 049 - 2010, FLAC (tracks+.cue), lossless
Треклист:
ICP Orchestra / ICP 049
Жанр: Free Improvisation
Страна-производитель диска: Netherlands
Год издания: 2010
Издатель (лейбл): Instant Composers Pool
Номер по каталогу: ICP 049
Аудиокодек: FLAC (*.flac)
Тип рипа: tracks+.cue
Битрейт аудио: lossless
Продолжительность: 53:38
Источник (релизер): whatcd
Наличие сканов в содержимом раздачи: нет
Треклист:
1 Niet Zus, Maar Zo 2:26
2 Wakeup Call 4:36
3 Sumptious 8:47
4 Hamami 2:59
5 Busy Beaver 5:43
6 Mitrab 4:19
7 The Lepaerd 5:27
8 Het Zoemen 4:36
9 Erma 2:17
10 No Idea 7:00
11 Sonnet In Search Of A Moor 4:59
12 Steigerpijp 6:24
 
Лог создания рипа
Exact Audio Copy V1.0 beta 3 from 29. August 2011
EAC extraction logfile from 30. May 2012, 10:59
ICP Orchestra / ICP 049
Used drive : SlimtypeDVD A DS8A5SH Adapter: 0 ID: 0
Read mode : Secure
Utilize accurate stream : Yes
Defeat audio cache : Yes
Make use of C2 pointers : No
Read offset correction : 6
Overread into Lead-In and Lead-Out : No
Fill up missing offset samples with silence : Yes
Delete leading and trailing silent blocks : No
Null samples used in CRC calculations : Yes
Used interface : Native Win32 interface for Win NT & 2000
Gap handling : Appended to previous track
Used output format : User Defined Encoder
Selected bitrate : 896 kBit/s
Quality : High
Add ID3 tag : No
Command line compressor : C:\Program Files (x86)\FLAC\flac.exe
Additional command line options : -8 -V -T "ARTIST=%artist%" -T "TITLE=%title%" -T "ALBUM=%albumtitle%" -T "DATE=%year%" -T "TRACKNUMBER=%tracknr%" -T "GENRE=%genre%" -T "PERFORMER=%albuminterpret%" -T "COMPOSER=%composer%" %haslyrics%--tag-from-file=LYRICS="%lyricsfile%"%haslyrics% -T "ALBUMARTIST=%albumartist%" -T "DISCNUMBER=%cdnumber%" -T "TOTALDISCS=%totalcds%" -T "TOTALTRACKS=%numtracks%" -T "COMMENT=%comment%" %source% -o %dest%
TOC of the extracted CD
Track | Start | Length | Start sector | End sector
---------------------------------------------------------
1 | 0:00.00 | 2:27.64 | 0 | 11088
2 | 2:27.64 | 4:36.01 | 11089 | 31789
3 | 7:03.65 | 8:50.43 | 31790 | 71582
4 | 15:54.33 | 2:58.23 | 71583 | 84955
5 | 18:52.56 | 5:46.10 | 84956 | 110915
6 | 24:38.66 | 4:20.33 | 110916 | 130448
7 | 28:59.24 | 5:26.27 | 130449 | 154925
8 | 34:25.51 | 4:35.44 | 154926 | 175594
9 | 39:01.20 | 2:17.34 | 175595 | 185903
10 | 41:18.54 | 7:00.63 | 185904 | 217466
11 | 48:19.42 | 5:19.17 | 217467 | 241408
12 | 56:10.59 | 12:31.26 | 252809 | 309159
Track 1
Filename C:\EAC\ICP Orchestra - ICP 049 (2010) - [FLAC]\01 Niet Zus, Maar Zo.wav
Pre-gap length 0:00:02.00
Peak level 98.1 %
Extraction speed 1.0 X
Track quality 100.0 %
Test CRC DAB56149
Copy CRC DAB56149
Accurately ripped (confidence 2) [E0104145] (AR v1)
Copy OK
Track 2
Filename C:\EAC\ICP Orchestra - ICP 049 (2010) - [FLAC]\02 Wake-up Call.wav
Peak level 98.3 %
Extraction speed 1.2 X
Track quality 100.0 %
Test CRC AC4F0B19
Copy CRC AC4F0B19
Accurately ripped (confidence 2) [406CD1AA] (AR v1)
Copy OK
Track 3
Filename C:\EAC\ICP Orchestra - ICP 049 (2010) - [FLAC]\03 Sumptious.wav
Peak level 98.7 %
Extraction speed 1.5 X
Track quality 100.0 %
Test CRC 24137B8E
Copy CRC 24137B8E
Accurately ripped (confidence 2) [C75329B7] (AR v1)
Copy OK
Track 4
Filename C:\EAC\ICP Orchestra - ICP 049 (2010) - [FLAC]\04 Hamami.wav
Peak level 98.3 %
Extraction speed 1.2 X
Track quality 99.9 %
Test CRC 36C03F13
Copy CRC 36C03F13
Accurately ripped (confidence 2) [D71944A9] (AR v1)
Copy OK
Track 5
Filename C:\EAC\ICP Orchestra - ICP 049 (2010) - [FLAC]\05 Busy Beaver.wav
Peak level 98.6 %
Extraction speed 1.7 X
Track quality 100.0 %
Test CRC A5F29B5F
Copy CRC A5F29B5F
Accurately ripped (confidence 2) [8EB4B20F] (AR v1)
Copy OK
Track 6
Filename C:\EAC\ICP Orchestra - ICP 049 (2010) - [FLAC]\06 Mitrab.wav
Peak level 96.5 %
Extraction speed 1.7 X
Track quality 100.0 %
Test CRC B043A44F
Copy CRC B043A44F
Accurately ripped (confidence 2) [ECBBAB16] (AR v1)
Copy OK
Track 7
Filename C:\EAC\ICP Orchestra - ICP 049 (2010) - [FLAC]\07 The Lepaerd.wav
Peak level 98.3 %
Extraction speed 1.7 X
Track quality 99.9 %
Test CRC 479AD8C8
Copy CRC 479AD8C8
Accurately ripped (confidence 2) [AF07B539] (AR v1)
Copy OK
Track 8
Filename C:\EAC\ICP Orchestra - ICP 049 (2010) - [FLAC]\08 Het Zoemen.wav
Peak level 98.2 %
Extraction speed 1.9 X
Track quality 100.0 %
Test CRC 0404F4CD
Copy CRC 0404F4CD
Accurately ripped (confidence 2) [A89B1DFE] (AR v1)
Copy OK
Track 9
Filename C:\EAC\ICP Orchestra - ICP 049 (2010) - [FLAC]\09 Erma.wav
Peak level 62.8 %
Extraction speed 1.5 X
Track quality 99.9 %
Test CRC F8CBCD3B
Copy CRC F8CBCD3B
Accurately ripped (confidence 2) [42A3E05C] (AR v1)
Copy OK
Track 10
Filename C:\EAC\ICP Orchestra - ICP 049 (2010) - [FLAC]\10 No Idea.wav
Peak level 99.4 %
Extraction speed 2.2 X
Track quality 100.0 %
Test CRC 3AA30DAB
Copy CRC 3AA30DAB
Accurately ripped (confidence 2) [E075343C] (AR v1)
Copy OK
Track 11
Filename C:\EAC\ICP Orchestra - ICP 049 (2010) - [FLAC]\11 Sonnet in Search of a Moor.wav
Peak level 98.3 %
Extraction speed 2.2 X
Track quality 100.0 %
Test CRC BE73FC51
Copy CRC BE73FC51
Accurately ripped (confidence 2) [A684DF70] (AR v1)
Copy OK
All tracks accurately ripped
No errors occurred
End of status report
---- CUETools DB Plugin V2.1.3
[CTDB TOCID: pUqVQEaTC6guNCi1XdDHx6dmn84-] disk not present in database, Submit result: pUqVQEaTC6guNCi1XdDHx6dmn84- has been uploaded
==== Log checksum FB4A9F60D01EE482DE93C20A9E8C1B72EA9A8C5D0BA01CFBA359F1D172E30200 ====
 
Содержание индексной карты (.CUE)
REM GENRE "Free Jazz"
REM DATE 2010
REM DISCID 96101A0C
REM COMMENT "ExactAudioCopy v1.0b3"
PERFORMER "ICP Orchestra"
TITLE "ICP 049"
FILE "01 Niet Zus, Maar Zo.wav" WAVE
TRACK 01 AUDIO
TITLE "Niet Zus, Maar Zo"
PERFORMER "ICP Orchestra"
ISRC NLB931000001
INDEX 01 00:00:00
FILE "02 Wake-up Call.wav" WAVE
TRACK 02 AUDIO
TITLE "Wake-up Call"
PERFORMER "ICP Orchestra"
ISRC NLB931000002
INDEX 01 00:00:00
FILE "03 Sumptious.wav" WAVE
TRACK 03 AUDIO
TITLE "Sumptious"
PERFORMER "ICP Orchestra"
ISRC NLB931000003
INDEX 01 00:00:00
FILE "04 Hamami.wav" WAVE
TRACK 04 AUDIO
TITLE "Hamami"
PERFORMER "ICP Orchestra"
ISRC NLB931000004
INDEX 01 00:00:00
FILE "05 Busy Beaver.wav" WAVE
TRACK 05 AUDIO
TITLE "Busy Beaver"
PERFORMER "ICP Orchestra"
ISRC NLB931000005
INDEX 01 00:00:00
FILE "06 Mitrab.wav" WAVE
TRACK 06 AUDIO
TITLE "Mitrab"
PERFORMER "ICP Orchestra"
ISRC NLB931000006
INDEX 01 00:00:00
FILE "07 The Lepaerd.wav" WAVE
TRACK 07 AUDIO
TITLE "The Lepaerd"
PERFORMER "ICP Orchestra"
ISRC NLB931000007
INDEX 01 00:00:00
FILE "08 Het Zoemen.wav" WAVE
TRACK 08 AUDIO
TITLE "Het Zoemen"
PERFORMER "ICP Orchestra"
ISRC NLB931000008
INDEX 01 00:00:00
FILE "09 Erma.wav" WAVE
TRACK 09 AUDIO
TITLE "Erma"
PERFORMER "ICP Orchestra"
ISRC NLB931000009
INDEX 01 00:00:00
FILE "10 No Idea.wav" WAVE
TRACK 10 AUDIO
TITLE "No Idea"
PERFORMER "ICP Orchestra"
ISRC NLB931000010
INDEX 01 00:00:00
FILE "11 Sonnet in Search of a Moor.wav" WAVE
TRACK 11 AUDIO
TITLE "Sonnet in Search of a Moor"
PERFORMER "ICP Orchestra"
ISRC NLB931000011
INDEX 01 00:00:00
TRACK 12 MODEx/2xxx
TITLE "Track12"
PERFORMER "ICP Orchestra"
INDEX 00 05:19:17
Доп. информация: Tacks 3, 6, 9 recorded on 13 June 2009 at Cultureel Centrum Maasmechelen, Belgium
all other tracks recorded at the Bimhuis, Amsterdam, 1, 5, 10, 11 on 2/3 September 2009 and 2, 4, 7, 8 on 4 September 2009
Track 12 is a bonus DVD track.
 
Состав
Bass – Ernst Glerum
Cello – Tristan Honsinger
Clarinet, Saxophone – Ab Baars, Michael Moore (4)
Drums – Han Bennink
Piano – Misha Mengelberg
Tenor Saxophone – Tobias Delius
Trombone – Wolter Wierbos
Trumpet – Thomas Heberer
Violin, Viola – Mary Oliver
По всем вопросам пишите личное сообщение пользователю M0p94ok.
03:01
201
Нет комментариев. Ваш будет первым!