Вы используете незарегистрированную версию компонента "Вкладки"!

Поиск

(Free Improvisation, Experimental) John Butcher & Phil Minton - Apples of Gomorrah - 2002, FLAC (tracks+.cue), lossless

(Free Improvisation, Experimental) John Butcher & Phil Minton - Apples of Gomorrah - 2002, FLAC (tracks+.cue), lossless
Треклист:
John Butcher & Phil Minton / Apples of Gomorrah
Жанр: Free Improvisation, Experimental
Страна-производитель диска: Germany
Год издания: 2002
Издатель (лейбл): GROB
Номер по каталогу: GROB 429
Аудиокодек: FLAC (*.flac)
Тип рипа: tracks+.cue
Битрейт аудио: lossless
Продолжительность: 44:28
Источник (релизер): whatcd/Shane
Наличие сканов в содержимом раздачи: нет
Треклист:
1 Dead Men's Bells 3:14
2 Common Cleavers 1:55
3 Sprangletop 0:55
4 Joyweed 2:36
5 Caper Spurge 3:48
6 Wormleaf 3:27
7 Itchgrass 5:30
8 Sticky Willie 3:22
9 Nodding Thistle 2:43
10 Fairy Cheeses 1:41
11 Herb Twopence 3:34
12 Sauce Alone 1:54
13 Nodding Spurge 1:02
14 Cuckoo's Stockings 1:20
15 Batchelor's Buttons 1:02
16 Beggar's Lice 2:54
17 Loosestrife 3:23
 
Лог создания рипа
Exact Audio Copy V1.0 beta 3 from 29. August 2011
EAC extraction logfile from 20. August 2012, 11:12
John Butcher & Phil Minton / Apples of Gomorrah
Used drive : PLEXTOR DVDR PX-716A Adapter: 0 ID: 1
Read mode : Secure
Utilize accurate stream : Yes
Defeat audio cache : Yes
Make use of C2 pointers : No
Read offset correction : 30
Overread into Lead-In and Lead-Out : No
Fill up missing offset samples with silence : Yes
Delete leading and trailing silent blocks : No
Null samples used in CRC calculations : Yes
Used interface : Native Win32 interface for Win NT & 2000
Gap handling : Appended to previous track
Used output format : User Defined Encoder
Selected bitrate : 768 kBit/s
Quality : High
Add ID3 tag : No
Command line compressor : H:\Program Files\Exact Audio Copy\FLAC\FLAC.EXE
Additional command line options : -6 -V -T "ARTIST=%artist%" -T "TITLE=%title%" -T "ALBUM=%albumtitle%" -T "DATE=%year%" -T "TRACKNUMBER=%tracknr%" -T "GENRE=%genre%" -T "COMMENT=%comment%" -T "BAND=%albuminterpret%" -T "ALBUMARTIST=%albuminterpret%" -T "COMPOSER=%composer%" %haslyrics%--tag-from-file=LYRICS="%lyricsfile%"%haslyrics% -T "DISCNUMBER=%cdnumber%" -T "TOTALDISCS=%totalcds%" -T "TOTALTRACKS=%numtracks%" %hascover%--picture="%coverfile%"%hascover% %source% -o %dest%
TOC of the extracted CD
Track | Start | Length | Start sector | End sector
---------------------------------------------------------
1 | 0:00.00 | 3:14.41 | 0 | 14590
2 | 3:14.41 | 1:55.67 | 14591 | 23282
3 | 5:10.33 | 0:55.09 | 23283 | 27416
4 | 6:05.42 | 2:36.21 | 27417 | 39137
5 | 8:41.63 | 3:48.70 | 39138 | 56307
6 | 12:30.58 | 3:27.42 | 56308 | 71874
7 | 15:58.25 | 5:30.23 | 71875 | 96647
8 | 21:28.48 | 3:22.11 | 96648 | 111808
9 | 24:50.59 | 2:43.12 | 111809 | 124045
10 | 27:33.71 | 1:41.00 | 124046 | 131620
11 | 29:14.71 | 3:34.49 | 131621 | 147719
12 | 32:49.45 | 1:54.57 | 147720 | 156326
13 | 34:44.27 | 1:02.53 | 156327 | 161029
14 | 35:47.05 | 1:20.57 | 161030 | 167086
15 | 37:07.62 | 1:02.43 | 167087 | 171779
16 | 38:10.30 | 2:54.65 | 171780 | 184894
17 | 41:05.20 | 3:23.06 | 184895 | 200125
Track 1
Filename H:\Documents and Settings\Shane Cullinane\Desktop\John Butcher & Phil Minton - Apples Of Gomorrah (2002) - FLAC\01 - Dead Men's Bells.wav
Pre-gap length 0:00:02.00
Peak level 61.6 %
Extraction speed 4.6 X
Track quality 99.9 %
Test CRC 3590228D
Copy CRC 3590228D
Track not present in AccurateRip database
Copy OK
Track 2
Filename H:\Documents and Settings\Shane Cullinane\Desktop\John Butcher & Phil Minton - Apples Of Gomorrah (2002) - FLAC\02 - Common Cleavers.wav
Peak level 77.2 %
Extraction speed 8.7 X
Track quality 100.0 %
Test CRC 229C1D4B
Copy CRC 229C1D4B
Track not present in AccurateRip database
Copy OK
Track 3
Filename H:\Documents and Settings\Shane Cullinane\Desktop\John Butcher & Phil Minton - Apples Of Gomorrah (2002) - FLAC\03 - Spangletop.wav
Peak level 74.8 %
Extraction speed 5.5 X
Track quality 99.8 %
Test CRC 02C7BF99
Copy CRC 02C7BF99
Track not present in AccurateRip database
Copy OK
Track 4
Filename H:\Documents and Settings\Shane Cullinane\Desktop\John Butcher & Phil Minton - Apples Of Gomorrah (2002) - FLAC\04 - Joyweed.wav
Pre-gap length 0:00:02.45
Peak level 68.3 %
Extraction speed 9.1 X
Track quality 100.0 %
Test CRC D84CA8DD
Copy CRC D84CA8DD
Track not present in AccurateRip database
Copy OK
Track 5
Filename H:\Documents and Settings\Shane Cullinane\Desktop\John Butcher & Phil Minton - Apples Of Gomorrah (2002) - FLAC\05 - Caper Spurge.wav
Pre-gap length 0:00:02.45
Peak level 79.4 %
Extraction speed 10.2 X
Track quality 100.0 %
Test CRC 1676A741
Copy CRC 1676A741
Track not present in AccurateRip database
Copy OK
Track 6
Filename H:\Documents and Settings\Shane Cullinane\Desktop\John Butcher & Phil Minton - Apples Of Gomorrah (2002) - FLAC\06 - Wormleaf.wav
Peak level 29.2 %
Extraction speed 10.7 X
Track quality 100.0 %
Test CRC 9734066E
Copy CRC 9734066E
Track not present in AccurateRip database
Copy OK
Track 7
Filename H:\Documents and Settings\Shane Cullinane\Desktop\John Butcher & Phil Minton - Apples Of Gomorrah (2002) - FLAC\07 - Itchgrass.wav
Pre-gap length 0:00:02.45
Peak level 71.3 %
Extraction speed 10.2 X
Track quality 99.9 %
Test CRC A048B67C
Copy CRC A048B67C
Track not present in AccurateRip database
Copy OK
Track 8
Filename H:\Documents and Settings\Shane Cullinane\Desktop\John Butcher & Phil Minton - Apples Of Gomorrah (2002) - FLAC\08 - Sticky Willie.wav
Pre-gap length 0:00:03.45
Peak level 79.3 %
Extraction speed 9.6 X
Track quality 99.9 %
Test CRC 50A30F0D
Copy CRC 50A30F0D
Track not present in AccurateRip database
Copy OK
Track 9
Filename H:\Documents and Settings\Shane Cullinane\Desktop\John Butcher & Phil Minton - Apples Of Gomorrah (2002) - FLAC\09 - Nodding Thistle.wav
Peak level 77.6 %
Extraction speed 10.4 X
Track quality 100.0 %
Test CRC 02DD1F3E
Copy CRC 02DD1F3E
Track not present in AccurateRip database
Copy OK
Track 10
Filename H:\Documents and Settings\Shane Cullinane\Desktop\John Butcher & Phil Minton - Apples Of Gomorrah (2002) - FLAC\10 - Fairy Cheeses.wav
Peak level 79.4 %
Extraction speed 6.9 X
Track quality 100.0 %
Test CRC 8008CB49
Copy CRC 8008CB49
Track not present in AccurateRip database
Copy OK
Track 11
Filename H:\Documents and Settings\Shane Cullinane\Desktop\John Butcher & Phil Minton - Apples Of Gomorrah (2002) - FLAC\11 - Herb Twopence.wav
Pre-gap length 0:00:00.45
Peak level 77.6 %
Extraction speed 10.7 X
Track quality 100.0 %
Test CRC 4B26779E
Copy CRC 4B26779E
Track not present in AccurateRip database
Copy OK
Track 12
Filename H:\Documents and Settings\Shane Cullinane\Desktop\John Butcher & Phil Minton - Apples Of Gomorrah (2002) - FLAC\12 - Sauce Alone.wav
Peak level 48.5 %
Extraction speed 11.6 X
Track quality 100.0 %
Test CRC 697C1B9A
Copy CRC 697C1B9A
Track not present in AccurateRip database
Copy OK
Track 13
Filename H:\Documents and Settings\Shane Cullinane\Desktop\John Butcher & Phil Minton - Apples Of Gomorrah (2002) - FLAC\13 - Nodding Spurge.wav
Pre-gap length 0:00:05.45
Peak level 59.8 %
Extraction speed 8.1 X
Track quality 99.8 %
Test CRC B970FF4E
Copy CRC B970FF4E
Track not present in AccurateRip database
Copy OK
Track 14
Filename H:\Documents and Settings\Shane Cullinane\Desktop\John Butcher & Phil Minton - Apples Of Gomorrah (2002) - FLAC\14 - Cuckoo's Stockings.wav
Peak level 97.2 %
Extraction speed 11.7 X
Track quality 100.0 %
Test CRC 14C2BF2B
Copy CRC 14C2BF2B
Track not present in AccurateRip database
Copy OK
Track 15
Filename H:\Documents and Settings\Shane Cullinane\Desktop\John Butcher & Phil Minton - Apples Of Gomorrah (2002) - FLAC\15 - Bachelors's Buttons.wav
Pre-gap length 0:00:01.06
Peak level 96.4 %
Extraction speed 9.0 X
Track quality 100.0 %
Test CRC 7F64E6AC
Copy CRC 7F64E6AC
Track not present in AccurateRip database
Copy OK
Track 16
Filename H:\Documents and Settings\Shane Cullinane\Desktop\John Butcher & Phil Minton - Apples Of Gomorrah (2002) - FLAC\16 - Beggar's Lice.wav
Pre-gap length 0:00:01.10
Peak level 95.3 %
Extraction speed 9.9 X
Track quality 100.0 %
Test CRC DE5184A9
Copy CRC DE5184A9
Track not present in AccurateRip database
Copy OK
Track 17
Filename H:\Documents and Settings\Shane Cullinane\Desktop\John Butcher & Phil Minton - Apples Of Gomorrah (2002) - FLAC\17 - Loosestrife.wav
Pre-gap length 0:00:03.45
Peak level 100.0 %
Extraction speed 8.3 X
Track quality 100.0 %
Test CRC EE1FD352
Copy CRC EE1FD352
Track not present in AccurateRip database
Copy OK
None of the tracks are present in the AccurateRip database
No errors occurred
End of status report
---- CUETools DB Plugin V2.1.3
[CTDB TOCID: z3HDN8H6kJE5Bw9WHIlKa2mh9TU-] disk not present in database, Submit result: z3HDN8H6kJE5Bw9WHIlKa2mh9TU- has been uploaded
==== Log checksum 0A06ED5775B8FB2224E299FB1D19CC7D362DD250C806BBE3A11B6130B6F411DE ====
 
Содержание индексной карты (.CUE)
REM GENRE Other
REM DATE 2002
REM DISCID F20A6C11
REM COMMENT "ExactAudioCopy v1.0b3"
PERFORMER "John Butcher, Phil Minton"
TITLE "Apples of Gomorrah"
FILE "01 - Dead Men's Bells.wav" WAVE
TRACK 01 AUDIO
TITLE "Dead Men's Bells"
PERFORMER "John Butcher, Phil Minton"
FLAGS DCP
INDEX 01 00:00:00
FILE "02 - Common Cleavers.wav" WAVE
TRACK 02 AUDIO
TITLE "Common Cleavers"
PERFORMER "John Butcher, Phil Minton"
FLAGS DCP
INDEX 01 00:00:00
FILE "03 - Spangletop.wav" WAVE
TRACK 03 AUDIO
TITLE "Spangletop"
PERFORMER "John Butcher, Phil Minton"
FLAGS DCP
INDEX 01 00:00:00
TRACK 04 AUDIO
TITLE "Joyweed"
PERFORMER "John Butcher, Phil Minton"
FLAGS DCP
INDEX 00 00:52:39
FILE "04 - Joyweed.wav" WAVE
INDEX 01 00:00:00
TRACK 05 AUDIO
TITLE "Caper Spurge"
PERFORMER "John Butcher, Phil Minton"
FLAGS DCP
INDEX 00 02:33:51
FILE "05 - Caper Spurge.wav" WAVE
INDEX 01 00:00:00
FILE "06 - Wormleaf.wav" WAVE
TRACK 06 AUDIO
TITLE "Wormleaf"
PERFORMER "John Butcher, Phil Minton"
FLAGS DCP
INDEX 01 00:00:00
TRACK 07 AUDIO
TITLE "Itchgrass"
PERFORMER "John Butcher, Phil Minton"
FLAGS DCP
INDEX 00 03:24:72
FILE "07 - Itchgrass.wav" WAVE
INDEX 01 00:00:00
TRACK 08 AUDIO
TITLE "Sticky Willie"
PERFORMER "John Butcher, Phil Minton"
FLAGS DCP
INDEX 00 05:26:53
FILE "08 - Sticky Willie.wav" WAVE
INDEX 01 00:00:00
FILE "09 - Nodding Thistle.wav" WAVE
TRACK 09 AUDIO
TITLE "Nodding Thistle"
PERFORMER "John Butcher, Phil Minton"
FLAGS DCP
INDEX 01 00:00:00
FILE "10 - Fairy Cheeses.wav" WAVE
TRACK 10 AUDIO
TITLE "Fairy Cheeses"
PERFORMER "John Butcher, Phil Minton"
FLAGS DCP
INDEX 01 00:00:00
TRACK 11 AUDIO
TITLE "Herb Twopence"
PERFORMER "John Butcher, Phil Minton"
FLAGS DCP
INDEX 00 01:40:30
FILE "11 - Herb Twopence.wav" WAVE
INDEX 01 00:00:00
FILE "12 - Sauce Alone.wav" WAVE
TRACK 12 AUDIO
TITLE "Sauce Alone"
PERFORMER "John Butcher, Phil Minton"
FLAGS DCP
INDEX 01 00:00:00
TRACK 13 AUDIO
TITLE "Nodding Spurge"
PERFORMER "John Butcher, Phil Minton"
FLAGS DCP
INDEX 00 01:49:12
FILE "13 - Nodding Spurge.wav" WAVE
INDEX 01 00:00:00
FILE "14 - Cuckoo's Stockings.wav" WAVE
TRACK 14 AUDIO
TITLE "Cuckoo's Stockings"
PERFORMER "John Butcher, Phil Minton"
FLAGS DCP
INDEX 01 00:00:00
TRACK 15 AUDIO
TITLE "Bachelors's Buttons"
PERFORMER "John Butcher, Phil Minton"
FLAGS DCP
INDEX 00 01:19:51
FILE "15 - Bachelors's Buttons.wav" WAVE
INDEX 01 00:00:00
TRACK 16 AUDIO
TITLE "Beggar's Lice"
PERFORMER "John Butcher, Phil Minton"
FLAGS DCP
INDEX 00 01:01:33
FILE "16 - Beggar's Lice.wav" WAVE
INDEX 01 00:00:00
TRACK 17 AUDIO
TITLE "Loosestrife"
PERFORMER "John Butcher, Phil Minton"
FLAGS DCP
INDEX 00 02:51:20
FILE "17 - Loosestrife.wav" WAVE
INDEX 01 00:00:00
 
Об альбоме (сборнике)
To state it upfront: Apples of Gomorrah is an excellent album, probably the best one could have hoped for from this duo. But it raises two questions: Why does it take three years to release an album? And why does it need two tape editors other than the artists? Free improv purists will immediately jump on the "record and let it be" case. Tampering with the tapes leads to interrogations regarding the quality of the performance as it happened. On the other hand, the German label Grob has shown in the past its interest in releasing the best album possible, not the most accurate document. In that, Apples of Gomorrah succeeds. Most of this album (the first 12 tracks) was recorded at Gateway Studios in August 1999. To push the set to 45 minutes, one track from a concert at the LMC (recorded in July) and four more from the Red Rose (February) were added. In all tracks, vocals and saxophone dance with each other; sometimes they waltz, sometimes they trash, elsewhere they achieve a Butoh-like purity in stillness ("Wormleaf," powerfully dense in its lack of movement). Phil Minton is as playful as ever, which means he never crosses over to childish play-acting, even though his musical vocabulary would make it easy to do so. No matter how many times you hear Minton sing, the sounds he makes remain amazing and fresh. His sense of improvisation matches John Butcher's ability to keep proceedings on the cutting edge. The main quality of this album resides in the brevity of the tracks. Most last between two and three minutes, enhancing the density of the playing.
 
Состав
Tenor Saxophone – John Butcher
Voice – Phil Minton
Any questions -> support@pro-jazz.com. По всем вопросам пишите -> support@pro-jazz.com
03:06
165
Нет комментариев. Ваш будет первым!