Поиск

(Free Jazz, Contemporary Jazz) [CD] Samo Salamon Bassless Trio (Tim Berne, Achille Succi, Tom Rainey, Roberto Dani) - Duality - 2011, FLAC (tracks+.cue), lossless

Треклист:
Samo Salamon Bassless Trio / Duality
Жанр: Free Jazz, Contemporary Jazz
Носитель: CD
Страна-производитель диска (релиза): Slovenia
Год издания: 2011
Издатель (лейбл): Samo Records
Номер по каталогу: none
Аудиокодек: FLAC (*.flac)
Тип рипа: tracks+.cue
Битрейт аудио: lossless
Продолжительность: 73:59
Источник (релизер): whatcd (xdamienx)
Наличие сканов в содержимом раздачи: нет
Треклист:
01. Blistering 09:25
02. Flying Potatoes 05:39
03. Mea Culpa 07:16
04. Twists and Turns 07:28
05. Falcon's Flight 09:32
06. Roofs in the City 03:40
07. Kei's Garden 07:35
08. Road to Nantucket 05:15
09. Nantucket 05:46
10. The Weight of One Daisy 05:39
11. Asking for a Break 06:44
 
Лог создания рипа
Exact Audio Copy V1.0 beta 3 from 29. August 2011
EAC extraction logfile from 9. July 2014, 21:36
Samo Šalamon Bassless Trio / Duality
Used drive : MATSHITADVD-RAM UJ8E1 Adapter: 2 ID: 0
Read mode : Secure
Utilize accurate stream : Yes
Defeat audio cache : Yes
Make use of C2 pointers : No
Read offset correction : 6
Overread into Lead-In and Lead-Out : No
Fill up missing offset samples with silence : Yes
Delete leading and trailing silent blocks : No
Null samples used in CRC calculations : Yes
Used interface : Native Win32 interface for Win NT & 2000
Gap handling : Appended to previous track
Used output format : User Defined Encoder
Selected bitrate : 1024 kBit/s
Quality : High
Add ID3 tag : No
Command line compressor : C:\Program Files (x86)\Exact Audio Copy\Flac\flac.exe
Additional command line options : -8 -V -T "ARTIST=%artist%" -T "TITLE=%title%" -T "ALBUM=%albumtitle%" -T "DATE=%year%" -T "TRACKNUMBER=%tracknr%" -T "GENRE=%genre%" -T "PERFORMER=%albuminterpret%" -T "COMPOSER=%composer%" %haslyrics%--tag-from-file=LYRICS="%lyricsfile%"%haslyrics% -T "ALBUMARTIST=%albumartist%" -T "DISCNUMBER=%cdnumber%" -T "TOTALDISCS=%totalcds%" -T "TOTALTRACKS=%numtracks%" -T "COMMENT=%comment%" %source% -o %dest%
TOC of the extracted CD
Track | Start | Length | Start sector | End sector
---------------------------------------------------------
1 | 0:00.00 | 9:25.16 | 0 | 42390
2 | 9:25.16 | 5:39.16 | 42391 | 67831
3 | 15:04.32 | 7:15.49 | 67832 | 100505
4 | 22:20.06 | 7:28.33 | 100506 | 134138
5 | 29:48.39 | 9:32.28 | 134139 | 177066
6 | 39:20.67 | 3:39.57 | 177067 | 193548
7 | 43:00.49 | 7:34.51 | 193549 | 227649
8 | 50:35.25 | 5:15.16 | 227650 | 251290
9 | 55:50.41 | 5:46.24 | 251291 | 277264
10 | 61:36.65 | 5:38.48 | 277265 | 302662
11 | 67:15.38 | 6:44.26 | 302663 | 332988
Track 1
Filename H:\Samo Šalamon Bassless Trios - Duality (2011) [FLAC]\01 - Blistering.wav
Pre-gap length 0:00:02.00
Peak level 97.8 %
Extraction speed 3.3 X
Track quality 100.0 %
Test CRC AB68AF2A
Copy CRC AB68AF2A
Track not present in AccurateRip database
Copy OK
Track 2
Filename H:\Samo Šalamon Bassless Trios - Duality (2011) [FLAC]\02 - Flying Potatoes.wav
Pre-gap length 0:00:02.00
Peak level 97.7 %
Extraction speed 3.6 X
Track quality 100.0 %
Test CRC FB244383
Copy CRC FB244383
Track not present in AccurateRip database
Copy OK
Track 3
Filename H:\Samo Šalamon Bassless Trios - Duality (2011) [FLAC]\03 - Mea Culpa.wav
Pre-gap length 0:00:02.00
Peak level 97.7 %
Extraction speed 4.1 X
Track quality 100.0 %
Test CRC 2A14300D
Copy CRC 2A14300D
Track not present in AccurateRip database
Copy OK
Track 4
Filename H:\Samo Šalamon Bassless Trios - Duality (2011) [FLAC]\04 - Twists and Turns.wav
Pre-gap length 0:00:02.00
Peak level 97.7 %
Extraction speed 4.5 X
Track quality 100.0 %
Test CRC 7DA6DAB0
Copy CRC 7DA6DAB0
Track not present in AccurateRip database
Copy OK
Track 5
Filename H:\Samo Šalamon Bassless Trios - Duality (2011) [FLAC]\05 - Falcon's Flight.wav
Pre-gap length 0:00:02.00
Peak level 100.0 %
Extraction speed 4.6 X
Track quality 99.9 %
Test CRC 3088B59C
Copy CRC 3088B59C
Track not present in AccurateRip database
Copy OK
Track 6
Filename H:\Samo Šalamon Bassless Trios - Duality (2011) [FLAC]\06 - Roofs in the City.wav
Pre-gap length 0:00:02.00
Peak level 100.0 %
Extraction speed 3.9 X
Track quality 99.9 %
Test CRC 0290ABE6
Copy CRC 0290ABE6
Track not present in AccurateRip database
Copy OK
Track 7
Filename H:\Samo Šalamon Bassless Trios - Duality (2011) [FLAC]\07 - Kei's Garden.wav
Pre-gap length 0:00:02.00
Peak level 100.0 %
Extraction speed 5.4 X
Track quality 100.0 %
Test CRC 0A5E4B79
Copy CRC 0A5E4B79
Track not present in AccurateRip database
Copy OK
Track 8
Filename H:\Samo Šalamon Bassless Trios - Duality (2011) [FLAC]\08 - Road to Nantucket.wav
Pre-gap length 0:00:02.00
Peak level 98.1 %
Extraction speed 5.6 X
Track quality 100.0 %
Test CRC 43D8248C
Copy CRC 43D8248C
Track not present in AccurateRip database
Copy OK
Track 9
Filename H:\Samo Šalamon Bassless Trios - Duality (2011) [FLAC]\09 - Nantucket.wav
Pre-gap length 0:00:02.00
Peak level 100.0 %
Extraction speed 5.8 X
Track quality 100.0 %
Test CRC 8C6B57C7
Copy CRC 8C6B57C7
Track not present in AccurateRip database
Copy OK
Track 10
Filename H:\Samo Šalamon Bassless Trios - Duality (2011) [FLAC]\10 - The Weight of One Daisy.wav
Pre-gap length 0:00:02.00
Peak level 100.0 %
Extraction speed 5.2 X
Track quality 99.9 %
Test CRC 8AB5F629
Copy CRC 8AB5F629
Track not present in AccurateRip database
Copy OK
Track 11
Filename H:\Samo Šalamon Bassless Trios - Duality (2011) [FLAC]\11 - Asking for a Break.wav
Pre-gap length 0:00:02.00
Peak level 100.0 %
Extraction speed 6.4 X
Track quality 100.0 %
Test CRC 016EFAF3
Copy CRC 016EFAF3
Track not present in AccurateRip database
Copy OK
None of the tracks are present in the AccurateRip database
No errors occurred
End of status report
==== Log checksum 7894442B7B04E54632EBC3C40778235809F2C074897C48C117B0FDC3CA3636DE ====
 
Содержание индексной карты (.CUE)
REM GENRE Jazz
REM DATE 2011
REM DISCID 9E11570B
REM COMMENT "ExactAudioCopy v1.0b3"
PERFORMER "Samo Љalamon Bassless Trio"
TITLE "Duality"
FILE "01 - Blistering.wav" WAVE
TRACK 01 AUDIO
TITLE "Blistering"
PERFORMER "Samo Љalamon Bassless Trio"
FLAGS DCP
INDEX 01 00:00:00
TRACK 02 AUDIO
TITLE "Flying Potatoes"
PERFORMER "Samo Љalamon Bassless Trio"
FLAGS DCP
INDEX 00 09:23:16
FILE "02 - Flying Potatoes.wav" WAVE
INDEX 01 00:00:00
TRACK 03 AUDIO
TITLE "Mea Culpa"
PERFORMER "Samo Љalamon Bassless Trio"
FLAGS DCP
INDEX 00 05:37:16
FILE "03 - Mea Culpa.wav" WAVE
INDEX 01 00:00:00
TRACK 04 AUDIO
TITLE "Twists and Turns"
PERFORMER "Samo Љalamon Bassless Trio"
FLAGS DCP
INDEX 00 07:13:49
FILE "04 - Twists and Turns.wav" WAVE
INDEX 01 00:00:00
TRACK 05 AUDIO
TITLE "Falcon's Flight"
PERFORMER "Samo Љalamon Bassless Trio"
FLAGS DCP
INDEX 00 07:26:33
FILE "05 - Falcon's Flight.wav" WAVE
INDEX 01 00:00:00
TRACK 06 AUDIO
TITLE "Roofs in the City"
PERFORMER "Samo Љalamon Bassless Trio"
FLAGS DCP
INDEX 00 09:30:28
FILE "06 - Roofs in the City.wav" WAVE
INDEX 01 00:00:00
TRACK 07 AUDIO
TITLE "Kei's Garden"
PERFORMER "Samo Љalamon Bassless Trio"
FLAGS DCP
INDEX 00 03:37:57
FILE "07 - Kei's Garden.wav" WAVE
INDEX 01 00:00:00
TRACK 08 AUDIO
TITLE "Road to Nantucket"
PERFORMER "Samo Љalamon Bassless Trio"
FLAGS DCP
INDEX 00 07:32:51
FILE "08 - Road to Nantucket.wav" WAVE
INDEX 01 00:00:00
TRACK 09 AUDIO
TITLE "Nantucket"
PERFORMER "Samo Љalamon Bassless Trio"
FLAGS DCP
INDEX 00 05:13:16
FILE "09 - Nantucket.wav" WAVE
INDEX 01 00:00:00
TRACK 10 AUDIO
TITLE "The Weight of One Daisy"
PERFORMER "Samo Љalamon Bassless Trio"
FLAGS DCP
INDEX 00 05:44:24
FILE "10 - The Weight of One Daisy.wav" WAVE
INDEX 01 00:00:00
TRACK 11 AUDIO
TITLE "Asking for a Break"
PERFORMER "Samo Љalamon Bassless Trio"
FLAGS DCP
INDEX 00 05:36:48
FILE "11 - Asking for a Break.wav" WAVE
INDEX 01 00:00:00
 
Состав
US Trio 1-4
Tim Berne - alto sax
Samo Šalamon - guitar
Tom Rainey - drums
European Trio 5-11
Achille Succi - alto sax (5,6,7,9), bass clarinet (10,11)
Samo Šalamon - guitar
Roberto Dani - drums
По всем вопросам пишите личное сообщение пользователю M0p94ok.
16:08
167
Нет комментариев. Ваш будет первым!