Вы используете незарегистрированную версию компонента "Вкладки"!

Поиск

(Avant-Garde, Contemporary Jazz, Free Improvisation) [CD] Kasper Tom, Jacob Anderskov - Chroma - 2014, FLAC (tracks+.cue), lossless

(Avant-Garde, Contemporary Jazz, Free Improvisation) [CD] Kasper Tom, Jacob Anderskov - Chroma - 2014, FLAC (tracks+.cue), lossless
Треклист:
Kasper Tom, Jacob Anderskov - Chroma
Жанр: Avant-Garde, Contemporary Jazz, Free Improvisation
Носитель: CD
Год издания: 2014
Издатель (лейбл): Barefoot Records
Номер по каталогу: BFREC037CD
Страна исполнителя (группы): Denmark
Аудиокодек: FLAC (*.flac)
Тип рипа: tracks+.cue
Битрейт аудио: lossless
Продолжительность: 42:03
Источник (релизер): what.cd (embeejay)
Наличие сканов в содержимом раздачи: нет
Треклист:
1. Black / Yellow (03:29)
2. Blå (04:57)
3. Rouge (06:41)
4. Na Tagboksa (03:01)
5. Grøn (07:09)
6. Chord (05:04)
7. Lilac (04:58)
8. Hvid (06:44)
 
Лог создания рипа
Exact Audio Copy V1.0 beta 6 from 9. April 2015
EAC extraction logfile from 21. September 2015, 18:05
Kasper Tom/Jacob Anderskov / Chroma
Used drive : Optiarc DVD RW AD-7260S Adapter: 1 ID: 0
Read mode : Secure
Utilize accurate stream : Yes
Defeat audio cache : Yes
Make use of C2 pointers : No
Read offset correction : 48
Overread into Lead-In and Lead-Out : No
Fill up missing offset samples with silence : Yes
Delete leading and trailing silent blocks : No
Null samples used in CRC calculations : Yes
Used interface : Native Win32 interface for Win NT & 2000
Gap handling : Appended to previous track
Used output format : User Defined Encoder
Selected bitrate : 1024 kBit/s
Quality : High
Add ID3 tag : No
Command line compressor : C:\Program Files (x86)\Exact Audio Copy\FLAC\FLAC.EXE
Additional command line options : -8 -V -T "ARTIST=%artist%" -T "TITLE=%title%" -T "ALBUM=%albumtitle%" -T "DATE=%year%" -T "TRACKNUMBER=%tracknr%" -T "GENRE=%genre%" -T "PERFORMER=%albuminterpret%" -T "COMPOSER=%composer%" %haslyrics%--tag-from-file=LYRICS="%lyricsfile%"%haslyrics% -T "ALBUMARTIST=%albumartist%" -T "DISCNUMBER=%cdnumber%" -T "TOTALDISCS=%totalcds%" -T "TOTALTRACKS=%numtracks%" -T "COMMENT=%comment%" %source% -o %dest%
TOC of the extracted CD
Track | Start | Length | Start sector | End sector
---------------------------------------------------------
1 | 0:00.00 | 3:29.73 | 0 | 15747
2 | 3:29.73 | 4:57.55 | 15748 | 38077
3 | 8:27.53 | 6:41.41 | 38078 | 68193
4 | 15:09.19 | 3:01.55 | 68194 | 81823
5 | 18:10.74 | 7:09.71 | 81824 | 114069
6 | 25:20.70 | 5:04.47 | 114070 | 136916
7 | 30:25.42 | 4:58.47 | 136917 | 159313
8 | 35:24.14 | 6:44.54 | 159314 | 189667
Track 1
Filename C:\!EAC Rips\Kasper Tom, Jacob Anderskov - Chroma (2014) [FLAC]\01 - Black-yellow.wav
Pre-gap length 0:00:02.00
Peak level 97.7 %
Extraction speed 2.3 X
Track quality 100.0 %
Test CRC 45B381D7
Copy CRC 45B381D7
Track not present in AccurateRip database
Copy OK
Track 2
Filename C:\!EAC Rips\Kasper Tom, Jacob Anderskov - Chroma (2014) [FLAC]\02 - Blå.wav
Peak level 97.7 %
Extraction speed 2.7 X
Track quality 100.0 %
Test CRC 6EF20351
Copy CRC 6EF20351
Track not present in AccurateRip database
Copy OK
Track 3
Filename C:\!EAC Rips\Kasper Tom, Jacob Anderskov - Chroma (2014) [FLAC]\03 - Rouge.wav
Peak level 97.7 %
Extraction speed 3.1 X
Track quality 100.0 %
Test CRC CACAAB01
Copy CRC CACAAB01
Track not present in AccurateRip database
Copy OK
Track 4
Filename C:\!EAC Rips\Kasper Tom, Jacob Anderskov - Chroma (2014) [FLAC]\04 - Na tagboksa.wav
Peak level 97.7 %
Extraction speed 3.0 X
Track quality 100.0 %
Test CRC A8565378
Copy CRC A8565378
Track not present in AccurateRip database
Copy OK
Track 5
Filename C:\!EAC Rips\Kasper Tom, Jacob Anderskov - Chroma (2014) [FLAC]\05 - Grøn.wav
Peak level 97.7 %
Extraction speed 3.4 X
Track quality 99.9 %
Test CRC 60E1416B
Copy CRC 60E1416B
Track not present in AccurateRip database
Copy OK
Track 6
Filename C:\!EAC Rips\Kasper Tom, Jacob Anderskov - Chroma (2014) [FLAC]\06 - Chord.wav
Peak level 97.7 %
Extraction speed 3.8 X
Track quality 100.0 %
Test CRC 334831AF
Copy CRC 334831AF
Track not present in AccurateRip database
Copy OK
Track 7
Filename C:\!EAC Rips\Kasper Tom, Jacob Anderskov - Chroma (2014) [FLAC]\07 - Lilac.wav
Peak level 94.9 %
Extraction speed 4.0 X
Track quality 100.0 %
Test CRC BA07B0ED
Copy CRC BA07B0ED
Track not present in AccurateRip database
Copy OK
Track 8
Filename C:\!EAC Rips\Kasper Tom, Jacob Anderskov - Chroma (2014) [FLAC]\08 - Hvid.wav
Peak level 97.7 %
Extraction speed 4.0 X
Track quality 99.9 %
Test CRC 66525CFE
Copy CRC 66525CFE
Track not present in AccurateRip database
Copy OK
None of the tracks are present in the AccurateRip database
No errors occurred
End of status report
---- CUETools DB Plugin V2.1.6
[CTDB TOCID: ZomcJb7fgVf9.pyVC0MyooyMAYo-] disk not present in database
Submit result: ZomcJb7fgVf9.pyVC0MyooyMAYo- has been uploaded
==== Log checksum 9BD7F6CDDE8F30713D0BEB80144F4461C330212BA01EC42DCBA9B4A68ECAD404 ====
 
Содержание индексной карты (.CUE)
REM GENRE "Jazz, Free Improvisation"
REM DATE 2014
REM DISCID 5209E008
REM COMMENT "ExactAudioCopy v1.0b6"
PERFORMER "Kasper Tom/Jacob Anderskov"
TITLE "Chroma"
FILE "01 - Black-yellow.wav" WAVE
TRACK 01 AUDIO
TITLE "Black-yellow"
PERFORMER "Kasper Tom/Jacob Anderskov"
ISRC NOHJX1403701
INDEX 01 00:00:00
FILE "02 - Blå.wav" WAVE
TRACK 02 AUDIO
TITLE "Blå"
PERFORMER "Kasper Tom/Jacob Anderskov"
ISRC NOHJX1403702
INDEX 01 00:00:00
FILE "03 - Rouge.wav" WAVE
TRACK 03 AUDIO
TITLE "Rouge"
PERFORMER "Kasper Tom/Jacob Anderskov"
ISRC NOHJX1403703
INDEX 01 00:00:00
FILE "04 - Na tagboksa.wav" WAVE
TRACK 04 AUDIO
TITLE "Na tagboksa"
PERFORMER "Kasper Tom/Jacob Anderskov"
ISRC NOHJX1403704
INDEX 01 00:00:00
FILE "05 - Grøn.wav" WAVE
TRACK 05 AUDIO
TITLE "Grøn"
PERFORMER "Kasper Tom/Jacob Anderskov"
ISRC NOHJX1403705
INDEX 01 00:00:00
FILE "06 - Chord.wav" WAVE
TRACK 06 AUDIO
TITLE "Chord"
PERFORMER "Kasper Tom/Jacob Anderskov"
ISRC NOHJX1403706
INDEX 01 00:00:00
FILE "07 - Lilac.wav" WAVE
TRACK 07 AUDIO
TITLE "Lilac"
PERFORMER "Kasper Tom/Jacob Anderskov"
ISRC NOHJX1403707
INDEX 01 00:00:00
FILE "08 - Hvid.wav" WAVE
TRACK 08 AUDIO
TITLE "Hvid"
PERFORMER "Kasper Tom/Jacob Anderskov"
ISRC NOHJX1403708
INDEX 01 00:00:00
 
Лог проверки качества
AUDIOCHECKER v2.0 beta (build 457) - by Dester - opdester@freemail.hu
~~~~~~~~~~~~~~~~~~~~~~~~~~~~~~~~~~
-=== DO NOT EDIT THIS FILE! ===-
Path: ...\Kasper Tom, Jacob Anderskov - Chroma (2014) [FLAC]
1 -=- 01 - Black-yellow.flac -=- CDDA (100%)
2 -=- 02 - Bla.flac -=- ERROR
3 -=- 03 - Rouge.flac -=- CDDA (100%)
4 -=- 04 - Na tagboksa.flac -=- CDDA (100%)
5 -=- 05 - Gron.flac -=- ERROR
6 -=- 06 - Chord.flac -=- CDDA (100%)
7 -=- 07 - Lilac.flac -=- CDDA (100%)
8 -=- 08 - Hvid.flac -=- CDDA (100%)
Summary 100,00% CDDA
158267588
 
Об исполнителе (группе)
This new duo sets out to conquer the world with inventive, open music composed by Kasper Tom.
Over the past few years, Kasper Tom has made his name on the European
improv- and advantgarde-scene. Kasper’s compositions draw inspiration from sense modern composition, but is also imbued with a great deal of melancholy and a unique sense of melody.
Jacob Anderskov has released close to 20 albums as a leader and co-leader since his debut in 2001. He has received numerous awards and has been acclaimed by the international press as a great voice in contemporary music. His work ranges from improvised works in small groups to fully composed pieces for larger ensembles. Most recently, he released the two albums “Agnostic Revelations” and “Granular Alchemy” with the musicians Chris Speed, Michael Formanek and Gerald Cleaver .
”Danish drummer Kasper Tom Christiansen is one of the most interesting composers in the vibrant Danish jazz scene. As many other like-minded composers in this scene, he does not bind himself to the jazz legacy. His distinct musical personality references elements of contemporary music, and free improvisation. His compositions often bend catchy melodies into complex structures, while playing with seriousness. He challenges with odd segments and constantly attempts to push the boundaries without forgetting formative legacies. Impressive performances of demanding and challenging compositions.” – All About Jazz
 
Состав
Kasper Tom - drums + composition
Jacob Anderskov - piano
По всем вопросам пишите личное сообщение пользователю M0p94ok.
16:07
138
Нет комментариев. Ваш будет первым!