Поиск

(Avant-Garde, Contemporary Jazz, Free Jazz) [CD] Jacob Anderskov - Dynamics (The Terrain) [Habitable Exomusics Vol. III] - 2015, FLAC (tracks+.cue), lossless

(Avant-Garde, Contemporary Jazz, Free Jazz) [CD] Jacob Anderskov - Dynamics (The Terrain) [Habitable Exomusics Vol. III] - 2015, FLAC (tracks+.cue), lossless
Треклист:
Jacob Anderskov - Dynamics (The Terrain)
Жанр: Avant-Garde, Contemporary Jazz, Free Jazz
Носитель: CD
Год издания: 2015
Издатель (лейбл): ILK Music
Номер по каталогу: LK246CD
Страна исполнителя (группы): Denmark
Аудиокодек: FLAC (*.flac)
Тип рипа: tracks+.cue
Битрейт аудио: lossless
Продолжительность: 47:51
Источник (релизер): what.cd (embeejay)
Наличие сканов в содержимом раздачи: нет
Треклист:
01. The Terrain, Pt. I (11:17)
02. The Terrain, Pt. II (16:53)
03. The Terrain, Pt. III (7:19)
04. The Terrain, Pt. IV (12:22)
 
Лог создания рипа
Exact Audio Copy V1.0 beta 6 from 9. April 2015
EAC extraction logfile from 5. October 2015, 14:55
Jacob Anderskov / Dynamics (The Terrain)
Used drive : Optiarc DVD RW AD-7260S Adapter: 1 ID: 0
Read mode : Secure
Utilize accurate stream : Yes
Defeat audio cache : Yes
Make use of C2 pointers : No
Read offset correction : 48
Overread into Lead-In and Lead-Out : No
Fill up missing offset samples with silence : Yes
Delete leading and trailing silent blocks : No
Null samples used in CRC calculations : Yes
Used interface : Native Win32 interface for Win NT & 2000
Gap handling : Appended to previous track
Used output format : User Defined Encoder
Selected bitrate : 1024 kBit/s
Quality : High
Add ID3 tag : No
Command line compressor : C:\Program Files (x86)\Exact Audio Copy\FLAC\FLAC.EXE
Additional command line options : -8 -V -T "ARTIST=%artist%" -T "TITLE=%title%" -T "ALBUM=%albumtitle%" -T "DATE=%year%" -T "TRACKNUMBER=%tracknr%" -T "GENRE=%genre%" -T "PERFORMER=%albuminterpret%" -T "COMPOSER=%composer%" %haslyrics%--tag-from-file=LYRICS="%lyricsfile%"%haslyrics% -T "ALBUMARTIST=%albumartist%" -T "DISCNUMBER=%cdnumber%" -T "TOTALDISCS=%totalcds%" -T "TOTALTRACKS=%numtracks%" -T "COMMENT=%comment%" %source% -o %dest%
TOC of the extracted CD
Track | Start | Length | Start sector | End sector
---------------------------------------------------------
1 | 0:00.00 | 11:17.03 | 0 | 50777
2 | 11:17.03 | 16:53.06 | 50778 | 126758
3 | 28:10.09 | 7:19.40 | 126759 | 159723
4 | 35:29.49 | 12:22.24 | 159724 | 215397
Track 1
Filename C:\!EAC Rips\Jacob Anderskov - Dynamics (The Terrain) (2015) [FLAC]\01 - The Terrain, Pt. I.wav
Pre-gap length 0:00:02.00
Peak level 91.8 %
Extraction speed 2.7 X
Track quality 100.0 %
Test CRC 04771F9C
Copy CRC 04771F9C
Track not present in AccurateRip database
Copy OK
Track 2
Filename C:\!EAC Rips\Jacob Anderskov - Dynamics (The Terrain) (2015) [FLAC]\02 - The Terrain, Pt. II.wav
Peak level 98.5 %
Extraction speed 3.5 X
Track quality 100.0 %
Test CRC E96DEEEA
Copy CRC E96DEEEA
Track not present in AccurateRip database
Copy OK
Track 3
Filename C:\!EAC Rips\Jacob Anderskov - Dynamics (The Terrain) (2015) [FLAC]\03 - The Terrain, Pt. III.wav
Peak level 49.1 %
Extraction speed 3.7 X
Track quality 99.9 %
Test CRC 9158F112
Copy CRC 9158F112
Track not present in AccurateRip database
Copy OK
Track 4
Filename C:\!EAC Rips\Jacob Anderskov - Dynamics (The Terrain) (2015) [FLAC]\04 - The Terrain, Pt. IV.wav
Peak level 95.9 %
Extraction speed 4.4 X
Track quality 100.0 %
Test CRC DBC24352
Copy CRC DBC24352
Track not present in AccurateRip database
Copy OK
None of the tracks are present in the AccurateRip database
No errors occurred
End of status report
---- CUETools DB Plugin V2.1.6
[CTDB TOCID: njHix7xhm6AgrI3.uhk32SbA8uQ-] disk not present in database
Submit result: njHix7xhm6AgrI3.uhk32SbA8uQ- has been uploaded
==== Log checksum 94E551A2FD3B4F726330410DFACEBFB8B67DAF2447B3515D1455C4ACFE23D56B ====
 
Содержание индексной карты (.CUE)
REM GENRE "Jazz, Contemporary Jazz"
REM DATE 2015
REM DISCID 310B3704
REM COMMENT "ExactAudioCopy v1.0b6"
PERFORMER "Jacob Anderskov"
TITLE "Dynamics (The Terrain)"
FILE "01 - The Terrain, Pt. I.wav" WAVE
TRACK 01 AUDIO
TITLE "The Terrain, Pt. I"
PERFORMER "Jacob Anderskov"
ISRC DKJ9A1500301
INDEX 01 00:00:00
FILE "02 - The Terrain, Pt. II.wav" WAVE
TRACK 02 AUDIO
TITLE "The Terrain, Pt. II"
PERFORMER "Jacob Anderskov"
ISRC DKJ9A1500302
INDEX 01 00:00:00
FILE "03 - The Terrain, Pt. III.wav" WAVE
TRACK 03 AUDIO
TITLE "The Terrain, Pt. III"
PERFORMER "Jacob Anderskov"
ISRC DKJ9A1500303
INDEX 01 00:00:00
FILE "04 - The Terrain, Pt. IV.wav" WAVE
TRACK 04 AUDIO
TITLE "The Terrain, Pt. IV"
PERFORMER "Jacob Anderskov"
ISRC DKJ9A1500304
INDEX 01 00:00:00
 
Лог проверки качества
AUDIOCHECKER v2.0 beta (build 457) - by Dester - opdester@freemail.hu
~~~~~~~~~~~~~~~~~~~~~~~~~~~~~~~~~~
-=== DO NOT EDIT THIS FILE! ===-
Path: ...\Jacob Anderskov - 2015 - Dynamics (The Terrain) [Habitable Exomusics Vol. III]
1 -=- 01 - The Terrain, Pt. I.flac -=- CDDA (100%)
2 -=- 02 - The Terrain, Pt. II.flac -=- CDDA (100%)
3 -=- 03 - The Terrain, Pt. III.flac -=- CDDA (100%)
4 -=- 04 - The Terrain, Pt. IV.flac -=- CDDA (100%)
Summary 100,00% CDDA
266974212
 
Состав
Jacob Anderskov - piano
Nils Davidsen - bass
Gerald Cleaver - drums
15:06
219
Нет комментариев. Ваш будет первым!