Вы используете незарегистрированную версию компонента "Вкладки"!

Поиск

(Avant-Garde Jazz, Free Jazz) [CD] John Coltrane - Interstellar Space (1967) - 2015 {UCCI-9252}, FLAC (tracks+.cue), lossless

(Avant-Garde Jazz, Free Jazz) [CD] John Coltrane - Interstellar Space (1967) - 2015 {UCCI-9252}, FLAC (tracks+.cue), lossless
Треклист:
John Coltrane - Interstellar Space (1967) Жанр: Avant-Garde Jazz, Free Jazz
Носитель: CD
Страна-производитель диска (релиза): Japan
Год издания: 2015
Издатель (лейбл): Impulse!/Verve/Universal Music Japan
Номер по каталогу: UCCI-9252
Аудиокодек: FLAC (*.flac)
Тип рипа: tracks+.cue
Битрейт аудио: lossless
Продолжительность: 36:20
Rip by ruskaval
Наличие сканов в содержимом раздачи: да
Треклист:
01. Mars (10:44)
02. Venus (8:37)
03. Jupiter (5:26)
04. Saturn (11:34)
Personnel:
John Coltrane - tenor saxophone, bells
Rashied Ali - drums
 
 
Лог создания рипа
Exact Audio Copy V1.1 from 23. June 2015
EAC extraction logfile from 9. October 2015, 23:32
John Coltrane / Interstellar Space
Used drive : TSSTcorpCDDVDW SE-208DB Adapter: 7 ID: 1
Read mode : Secure
Utilize accurate stream : Yes
Defeat audio cache : Yes
Make use of C2 pointers : No
Read offset correction : 6
Overread into Lead-In and Lead-Out : No
Fill up missing offset samples with silence : Yes
Delete leading and trailing silent blocks : No
Null samples used in CRC calculations : Yes
Used interface : Installed external ASPI interface
Gap handling : Appended to previous track
Used output format : User Defined Encoder
Selected bitrate : 1024 kBit/s
Quality : High
Add ID3 tag : No
Command line compressor : C:\Program Files (x86)\FLAC Frontend\tools\flac.exe
Additional command line options : -8 -V -T "ARTIST=%artist%" -T "TITLE=%title%" -T "ALBUM=%albumtitle%" -T "DATE=%year%" -T "TRACKNUMBER=%tracknr%" -T "TOTALTRACKS=%numtracks%" -T "GENRE=%genre%" -T "ALBUMARTIST=%albumartist%" -T "ALBUM ARTIST=%albumartist%" -T "COMMENT=EAC Secure Mode, Test & Copy, AccurateRip, FLAC -8" %source%
TOC of the extracted CD
Track | Start | Length | Start sector | End sector
---------------------------------------------------------
1 | 0:00.00 | 10:44.30 | 0 | 48329
2 | 10:44.30 | 8:36.40 | 48330 | 87069
3 | 19:20.70 | 5:25.51 | 87070 | 111495
4 | 24:46.46 | 11:33.47 | 111496 | 163517
Track 1
Filename M:\_EAC\John Coltrane - Interstellar Space (1967) [FLAC] {2015 Japan Impulse! Classics 50 Series}\01 - Mars.wav
Pre-gap length 0:00:02.00
Peak level 100.0 %
Extraction speed 1.3 X
Track quality 99.9 %
Test CRC D513973A
Copy CRC D513973A
Accurately ripped (confidence 1) [9591AB15] (AR v2)
Copy OK
Track 2
Filename M:\_EAC\John Coltrane - Interstellar Space (1967) [FLAC] {2015 Japan Impulse! Classics 50 Series}\02 - Venus.wav
Pre-gap length 0:00:02.51
Peak level 100.0 %
Extraction speed 1.6 X
Track quality 100.0 %
Test CRC 10263322
Copy CRC 10263322
Accurately ripped (confidence 1) [57270DC3] (AR v2)
Copy OK
Track 3
Filename M:\_EAC\John Coltrane - Interstellar Space (1967) [FLAC] {2015 Japan Impulse! Classics 50 Series}\03 - Jupiter.wav
Pre-gap length 0:00:07.62
Peak level 100.0 %
Extraction speed 1.6 X
Track quality 99.9 %
Test CRC FC0F453B
Copy CRC FC0F453B
Accurately ripped (confidence 1) [C99B44EC] (AR v2)
Copy OK
Track 4
Filename M:\_EAC\John Coltrane - Interstellar Space (1967) [FLAC] {2015 Japan Impulse! Classics 50 Series}\04 - Saturn.wav
Pre-gap length 0:00:02.68
Peak level 100.0 %
Extraction speed 2.1 X
Track quality 100.0 %
Test CRC 70CADD5A
Copy CRC 70CADD5A
Accurately ripped (confidence 1) [ED8D44EC] (AR v2)
Copy OK
All tracks accurately ripped
No errors occurred
End of status report
==== Log checksum 49EF14690B78CA6C5046C56B72A238D97F0E4519ABCCFBDECB1C32B80A880C85 ====
 
Содержание индексной карты (.CUE)
REM GENRE Jazz
REM DATE 1967
REM DISCID 31088404
REM COMMENT "ExactAudioCopy v1.1"
PERFORMER "John Coltrane"
TITLE "Interstellar Space"
FILE "01 - Mars.wav" WAVE
TRACK 01 AUDIO
TITLE "Mars"
PERFORMER "John Coltrane"
INDEX 01 00:00:00
TRACK 02 AUDIO
TITLE "Venus"
PERFORMER "John Coltrane"
INDEX 00 10:41:54
FILE "02 - Venus.wav" WAVE
INDEX 01 00:00:00
TRACK 03 AUDIO
TITLE "Jupiter"
PERFORMER "John Coltrane"
INDEX 00 08:28:53
FILE "03 - Jupiter.wav" WAVE
INDEX 01 00:00:00
TRACK 04 AUDIO
TITLE "Saturn"
PERFORMER "John Coltrane"
INDEX 00 05:22:58
FILE "04 - Saturn.wav" WAVE
INDEX 01 00:00:00
По всем вопросам пишите личное сообщение пользователю M0p94ok.
16:02
140
Нет комментариев. Ваш будет первым!