Вы используете незарегистрированную версию компонента "Вкладки"!

Поиск

(Free Improvisation) [CD] Achille Succi & Salvatore Maiore - Pequenas Flores Do Inferno - 2006, FLAC (tracks+.cue), lossless

(Free Improvisation) [CD] Achille Succi & Salvatore Maiore - Pequenas Flores Do Inferno - 2006, FLAC (tracks+.cue), lossless
Треклист:
Achille Succi & Salvatore Maiore / Pequenas Flores Do Inferno
Жанр: Free Improvisation
Носитель: CD
Страна-производитель диска (релиза): Italy
Год издания: 2006
Издатель (лейбл): El Gallo Rojo
Номер по каталогу: 314-9
Аудиокодек: FLAC (*.flac)
Тип рипа: tracks+.cue
Битрейт аудио: lossless
Продолжительность: 44:37
Источник (релизер): whatcd (cifelius)
Наличие сканов в содержимом раздачи: нет
Треклист:
1 Otokogokoro
2 Soulblade
3 Panterana
4 Night Lines
5 Hypnopotamo
6 Astroglide
7 Virus
8 Ky
9 Rosa
10 Fedifragola
11 Giubek
12 Settembrini
 
Лог создания рипа
Exact Audio Copy V1.0 beta 4 from 7. December 2014
EAC extraction logfile from 13. February 2015, 0:06
Succi & Maiore / Pequenas flores do Inferno
Used drive : HL-DT-STDVDRAM GH24NS50 Adapter: 0 ID: 0
Read mode : Secure
Utilize accurate stream : Yes
Defeat audio cache : Yes
Make use of C2 pointers : No
Read offset correction : 667
Overread into Lead-In and Lead-Out : No
Fill up missing offset samples with silence : Yes
Delete leading and trailing silent blocks : No
Null samples used in CRC calculations : Yes
Used interface : Installed external ASPI interface
Gap handling : Appended to previous track
Used output format : User Defined Encoder
Selected bitrate : 1024 kBit/s
Quality : High
Add ID3 tag : No
Command line compressor : C:\Programmi\Exact Audio Copy\Flac\flac.exe
Additional command line options : -8 -V -T "ARTIST=%artist%" -T "TITLE=%title%" -T "ALBUM=%albumtitle%" -T "DATE=%year%" -T "TRACKNUMBER=%tracknr%" -T "GENRE=%genre%" -T "PERFORMER=%albuminterpret%" -T "COMPOSER=%composer%" %haslyrics%--tag-from-file=LYRICS="%lyricsfile%"%haslyrics% -T "ALBUMARTIST=%albumartist%" -T "DISCNUMBER=%cdnumber%" -T "TOTALDISCS=%totalcds%" -T "TOTALTRACKS=%numtracks%" -T "COMMENT=%comment%" %source% -o %dest%
TOC of the extracted CD
Track | Start | Length | Start sector | End sector
---------------------------------------------------------
1 | 0:00.00 | 4:45.52 | 0 | 21426
2 | 4:45.52 | 4:06.24 | 21427 | 39900
3 | 8:52.01 | 2:54.03 | 39901 | 52953
4 | 11:46.04 | 2:57.12 | 52954 | 66240
5 | 14:43.16 | 4:52.42 | 66241 | 88182
6 | 19:35.58 | 3:38.68 | 88183 | 104600
7 | 23:14.51 | 4:05.37 | 104601 | 123012
8 | 27:20.13 | 3:14.17 | 123013 | 137579
9 | 30:34.30 | 3:40.59 | 137580 | 154138
10 | 34:15.14 | 3:56.71 | 154139 | 171909
11 | 38:12.10 | 2:54.73 | 171910 | 185032
12 | 41:07.08 | 3:29.71 | 185033 | 200778
Track 1
Filename G:\WhatCd Uploads\FLAC\Succi & Maiore - Pequenas flores do Inferno (2006) [FLAC] {El Gallo Rojo}\01 - Otokogokoro.wav
Pre-gap length 0:00:02.00
Peak level 96.6 %
Extraction speed 1.0 X
Track quality 100.0 %
Test CRC 117A6254
Copy CRC 117A6254
Track not present in AccurateRip database
Copy OK
Track 2
Filename G:\WhatCd Uploads\FLAC\Succi & Maiore - Pequenas flores do Inferno (2006) [FLAC] {El Gallo Rojo}\02 - Soulblade.wav
Pre-gap length 0:00:02.00
Peak level 100.0 %
Extraction speed 1.0 X
Track quality 99.9 %
Test CRC 11C365B1
Copy CRC 11C365B1
Track not present in AccurateRip database
Copy OK
Track 3
Filename G:\WhatCd Uploads\FLAC\Succi & Maiore - Pequenas flores do Inferno (2006) [FLAC] {El Gallo Rojo}\03 - Panterana.wav
Pre-gap length 0:00:02.00
Peak level 96.6 %
Extraction speed 1.2 X
Track quality 100.0 %
Test CRC E06E8E06
Copy CRC E06E8E06
Track not present in AccurateRip database
Copy OK
Track 4
Filename G:\WhatCd Uploads\FLAC\Succi & Maiore - Pequenas flores do Inferno (2006) [FLAC] {El Gallo Rojo}\04 - Night Lines.wav
Pre-gap length 0:00:02.00
Peak level 100.0 %
Extraction speed 1.2 X
Track quality 100.0 %
Test CRC 1316AC0E
Copy CRC 1316AC0E
Track not present in AccurateRip database
Copy OK
Track 5
Filename G:\WhatCd Uploads\FLAC\Succi & Maiore - Pequenas flores do Inferno (2006) [FLAC] {El Gallo Rojo}\05 - Hypnopotamo.wav
Pre-gap length 0:00:02.00
Peak level 96.6 %
Extraction speed 1.4 X
Track quality 100.0 %
Test CRC A9CCCEC3
Copy CRC A9CCCEC3
Track not present in AccurateRip database
Copy OK
Track 6
Filename G:\WhatCd Uploads\FLAC\Succi & Maiore - Pequenas flores do Inferno (2006) [FLAC] {El Gallo Rojo}\06 - Astroglide.wav
Pre-gap length 0:00:02.00
Peak level 96.6 %
Extraction speed 1.5 X
Track quality 100.0 %
Test CRC 557817A2
Copy CRC 557817A2
Track not present in AccurateRip database
Copy OK
Track 7
Filename G:\WhatCd Uploads\FLAC\Succi & Maiore - Pequenas flores do Inferno (2006) [FLAC] {El Gallo Rojo}\07 - Virus.wav
Pre-gap length 0:00:02.00
Peak level 96.6 %
Extraction speed 1.6 X
Track quality 100.0 %
Test CRC 8141FCAF
Copy CRC 8141FCAF
Track not present in AccurateRip database
Copy OK
Track 8
Filename G:\WhatCd Uploads\FLAC\Succi & Maiore - Pequenas flores do Inferno (2006) [FLAC] {El Gallo Rojo}\08 - KY.wav
Pre-gap length 0:00:02.00
Peak level 96.6 %
Extraction speed 1.3 X
Track quality 99.9 %
Test CRC 62055B8D
Copy CRC 62055B8D
Track not present in AccurateRip database
Copy OK
Track 9
Filename G:\WhatCd Uploads\FLAC\Succi & Maiore - Pequenas flores do Inferno (2006) [FLAC] {El Gallo Rojo}\09 - Rosa.wav
Pre-gap length 0:00:02.00
Peak level 96.6 %
Extraction speed 1.4 X
Track quality 99.9 %
Test CRC 7B28BEBF
Copy CRC 7B28BEBF
Track not present in AccurateRip database
Copy OK
Track 10
Filename G:\WhatCd Uploads\FLAC\Succi & Maiore - Pequenas flores do Inferno (2006) [FLAC] {El Gallo Rojo}\10 - Fedifragola.wav
Pre-gap length 0:00:02.00
Peak level 96.6 %
Extraction speed 1.7 X
Track quality 100.0 %
Test CRC A29FA26D
Copy CRC A29FA26D
Track not present in AccurateRip database
Copy OK
Track 11
Filename G:\WhatCd Uploads\FLAC\Succi & Maiore - Pequenas flores do Inferno (2006) [FLAC] {El Gallo Rojo}\11 - Giubek.wav
Pre-gap length 0:00:02.00
Peak level 96.6 %
Extraction speed 1.4 X
Track quality 99.9 %
Test CRC 0F3A4E0A
Copy CRC 0F3A4E0A
Track not present in AccurateRip database
Copy OK
Track 12
Filename G:\WhatCd Uploads\FLAC\Succi & Maiore - Pequenas flores do Inferno (2006) [FLAC] {El Gallo Rojo}\12 - Settembrini.wav
Pre-gap length 0:00:02.00
Peak level 96.6 %
Extraction speed 1.8 X
Track quality 100.0 %
Test CRC CFA6DF25
Copy CRC CFA6DF25
Track not present in AccurateRip database
Copy OK
None of the tracks are present in the AccurateRip database
No errors occurred
End of status report
---- CUETools DB Plugin V2.1.4
[CTDB TOCID: H_u0TxTk62YK_2MaQRvq59xCuNY-] found
Submit result: already submitted
Track | CTDB Status
1 | (2/2) Accurately ripped
2 | (2/2) Accurately ripped
3 | (2/2) Accurately ripped
4 | (2/2) Accurately ripped
5 | (2/2) Accurately ripped
6 | (2/2) Accurately ripped
7 | (2/2) Accurately ripped
8 | (2/2) Accurately ripped
9 | (2/2) Accurately ripped
10 | (2/2) Accurately ripped
11 | (2/2) Accurately ripped
12 | (2/2) Accurately ripped
==== Log checksum 3277C8C34B142424BDF43AB63E81A33691E32D78E09AE7B7F73DBB693D78F314 ====
 
Содержание индексной карты (.CUE)
REM GENRE Jazz
REM DATE 2006
REM DISCID B90A750C
REM COMMENT "ExactAudioCopy v1.0b4"
PERFORMER "Succi & Maiore"
TITLE "Pequenas flores do Inferno"
FILE "01 - Otokogokoro.wav" WAVE
TRACK 01 AUDIO
TITLE "Otokogokoro"
PERFORMER "Succi & Maiore"
INDEX 01 00:00:00
TRACK 02 AUDIO
TITLE "Soulblade"
PERFORMER "Succi & Maiore"
INDEX 00 04:43:52
FILE "02 - Soulblade.wav" WAVE
INDEX 01 00:00:00
TRACK 03 AUDIO
TITLE "Panterana"
PERFORMER "Succi & Maiore"
INDEX 00 04:04:24
FILE "03 - Panterana.wav" WAVE
INDEX 01 00:00:00
TRACK 04 AUDIO
TITLE "Night Lines"
PERFORMER "Succi & Maiore"
INDEX 00 02:52:03
FILE "04 - Night Lines.wav" WAVE
INDEX 01 00:00:00
TRACK 05 AUDIO
TITLE "Hypnopotamo"
PERFORMER "Succi & Maiore"
INDEX 00 02:55:12
FILE "05 - Hypnopotamo.wav" WAVE
INDEX 01 00:00:00
TRACK 06 AUDIO
TITLE "Astroglide"
PERFORMER "Succi & Maiore"
INDEX 00 04:50:42
FILE "06 - Astroglide.wav" WAVE
INDEX 01 00:00:00
TRACK 07 AUDIO
TITLE "Virus"
PERFORMER "Succi & Maiore"
INDEX 00 03:36:68
FILE "07 - Virus.wav" WAVE
INDEX 01 00:00:00
TRACK 08 AUDIO
TITLE "KY"
PERFORMER "Succi & Maiore"
INDEX 00 04:03:37
FILE "08 - KY.wav" WAVE
INDEX 01 00:00:00
TRACK 09 AUDIO
TITLE "Rosa"
PERFORMER "Succi & Maiore"
INDEX 00 03:12:17
FILE "09 - Rosa.wav" WAVE
INDEX 01 00:00:00
TRACK 10 AUDIO
TITLE "Fedifragola"
PERFORMER "Succi & Maiore"
INDEX 00 03:38:59
FILE "10 - Fedifragola.wav" WAVE
INDEX 01 00:00:00
TRACK 11 AUDIO
TITLE "Giubek"
PERFORMER "Succi & Maiore"
INDEX 00 03:54:71
FILE "11 - Giubek.wav" WAVE
INDEX 01 00:00:00
TRACK 12 AUDIO
TITLE "Settembrini"
PERFORMER "Succi & Maiore"
INDEX 00 02:52:73
FILE "12 - Settembrini.wav" WAVE
INDEX 01 00:00:00
 
Об альбоме (сборнике)
"Succi is always a melodic player and hence even his free improvisations contain motivic phrases that help create a structure.
Indeed, the strength of the music lies in the structure that supports these twelve striking miniatures.
[...] Fabulous music that will entrance for every single second of its forty-four minutes"
Budd Kopman - All About Jazz
 
Состав
Bass Clarinet, Alto Saxophone – Achille Succi
Double Bass – Salvatore Maiore
По всем вопросам пишите личное сообщение пользователю M0p94ok.
16:09
170
Нет комментариев. Ваш будет первым!