Вы используете незарегистрированную версию компонента "Вкладки"!

Поиск

(Free Jazz, Contemporary Jazz) [CD] Dreamtime (Roberto Bellatalla, Jim Le Baigue, Keith Tippett, Gary Curson, Nick Evans, Jim Dvorak) - Cathanger '86 - 2004, FLAC (image+.cue), lossless

(Free Jazz, Contemporary Jazz) [CD] Dreamtime (Roberto Bellatalla, Jim Le Baigue, Keith Tippett, Gary Curson, Nick Evans, Jim Dvorak) - Cathanger '86 - 2004, FLAC (image+.cue), lossless
Треклист:
Dreamtime / Cathanger '86
Жанр: Free Jazz, Contemporary Jazz
Носитель: CD
Страна-производитель диска: UK
Год издания: 2004
Издатель (лейбл): Hux Records
Номер по каталогу: HUX 055
Аудиокодек: FLAC (*.flac)
Тип рипа: image+.cue
Битрейт аудио: lossless
Продолжительность: 53:50
Источник (релизер): CD
Наличие сканов в содержимом раздачи: нет
Треклист:
1 Loopin'
2 Bushman's Dance
3 Tip Of The Iceberg
4 Chinese Hymn
5 Priest The Beast And The Rest Of Us
6 Song Of The Trickster
7 Dawn Chorus
8 Blessing In The Eyes
9 Freedom Dalbe 345
 
Лог создания рипа
Exact Audio Copy V1.0 beta 2 from 29. April 2011
EAC extraction logfile from 30. April 2014, 13:36
Dreamtime / Cathanger '86
Used drive : Optiarc DVD RW AD-7170A Adapter: 0 ID: 0
Read mode : Secure
Utilize accurate stream : Yes
Defeat audio cache : Yes
Make use of C2 pointers : No
Read offset correction : 48
Overread into Lead-In and Lead-Out : No
Fill up missing offset samples with silence : Yes
Delete leading and trailing silent blocks : No
Null samples used in CRC calculations : Yes
Used interface : Native Win32 interface for Win NT & 2000
Used output format : User Defined Encoder
Selected bitrate : 320 kBit/s
Quality : High
Add ID3 tag : No
Command line compressor : C:\Program Files\Exact Audio Copy\Flac\flac.exe
Additional command line options : -V -8 -T "Date=%year%" -T "Genre=%genre%" %source%
TOC of the extracted CD
Track | Start | Length | Start sector | End sector
---------------------------------------------------------
1 | 0:00.00 | 5:19.32 | 0 | 23956
2 | 5:19.32 | 8:11.10 | 23957 | 60791
3 | 13:30.42 | 4:34.25 | 60792 | 81366
4 | 18:04.67 | 8:38.60 | 81367 | 120276
5 | 26:43.52 | 5:22.13 | 120277 | 144439
6 | 32:05.65 | 6:01.08 | 144440 | 171522
7 | 38:06.73 | 3:30.43 | 171523 | 187315
8 | 41:37.41 | 8:06.36 | 187316 | 223801
9 | 49:44.02 | 4:06.60 | 223802 | 242311
Range status and errors
Selected range
Filename K:\ЕАС\Dreamtime - Cathanger '86.wav
Peak level 88.5 %
Extraction speed 1.9 X
Range quality 99.9 %
Test CRC A034B39F
Copy CRC A034B39F
Copy OK
No errors occurred
AccurateRip summary
Track 1 not present in database
Track 2 not present in database
Track 3 not present in database
Track 4 not present in database
Track 5 not present in database
Track 6 not present in database
Track 7 not present in database
Track 8 not present in database
Track 9 not present in database
None of the tracks are present in the AccurateRip database
End of status report
==== Log checksum DA8B506F09CAB73AC58C3F674A550894C217B0B45C9A8AABDF907640C9B016B4 ====
 
Содержание индексной карты (.CUE)
REM GENRE Jazz
REM DATE 2004
REM DISCID 860C9E09
REM COMMENT "ExactAudioCopy v1.0b2"
PERFORMER "Dreamtime"
TITLE "Cathanger '86 "
FILE "Dreamtime - Cathanger '86.flac" WAVE
TRACK 01 AUDIO
TITLE "Loopin'"
PERFORMER "Dreamtime"
ISRC 000000000000
INDEX 01 00:00:00
TRACK 02 AUDIO
TITLE "Bushman's Dance "
PERFORMER "Dreamtime"
ISRC 000000000000
INDEX 01 05:19:32
TRACK 03 AUDIO
TITLE "Tip Of The Iceberg "
PERFORMER "Dreamtime"
ISRC 000000000000
INDEX 01 13:30:42
TRACK 04 AUDIO
TITLE "Chinese Hymn"
PERFORMER "Dreamtime"
ISRC 000000000000
INDEX 01 18:04:67
TRACK 05 AUDIO
TITLE "Priest The Beast And The Rest Of Us"
PERFORMER "Dreamtime"
ISRC 000000000000
INDEX 01 26:43:52
TRACK 06 AUDIO
TITLE "Song Of The Trickster"
PERFORMER "Dreamtime"
ISRC 000000000000
INDEX 01 32:05:65
TRACK 07 AUDIO
TITLE "Dawn Chorus"
PERFORMER "Dreamtime"
ISRC 000000000000
INDEX 01 38:06:73
TRACK 08 AUDIO
TITLE "Blessing In The Eyes"
PERFORMER "Dreamtime"
ISRC 000000000000
INDEX 01 41:37:41
TRACK 09 AUDIO
TITLE "Freedom Dalbe 345"
PERFORMER "Dreamtime"
ISRC 000000000000
INDEX 01 49:44:02
Доп. информация: Recorded at Cathanger Studios in June of 1986
 
Об альбоме (сборнике)
Recorded at Cathanger Studios in June of 1986, but released a belated 18 years later, this album features the sextet version of Dreamtime. A year prior to this recording, pianist Keith Tippett was joining the lineup of Roberto Bellatalla (double bass), Gary Curson (saxes), Jim Dvorak (trumpet), Jim Lebaigue (drums), and trombonist/leader Nick Evans. Two of the nine tracks (all originals) were recorded without Tippett: "Tip of the Iceberg" is a fast-paced head-driven tune signed Evans, while "Blessing in the Eyes" features a free-form percussion intro (with probably all members of the original quintet involved in striking, shaking, and grunting) that gradually evolves into a Mario Schiano-like jazz piece. The numbers with Tippett tend to be slightly less festive, since his playing always carries a certain weight with it. Nevertheless, the opening "Loopin'" is a jolly number, with an angular, stuttering head and a mad swing that eventually turns into free-form rhythm when Bellatalla starts sawing his bass in half as the horn section disintegrates. Of the quieter pieces, "Bushman's Dance" is the most satisfying, Tippett shining at bringing out the melody together with Curson, before the other players gradually leave the free-form texture they're producing to join in unison for a near-processional hymn. "Chinese Hymn," where Tippett plays a prepared piano like it were a guzheng, falls rather flat, but represents the only subpar moment on the album. The set concludes with a rendition of Radu Malfatti's "Freedom - Dalbe 345," a piece combining free improvisation with melodic lines and an exuberant second-half theme -- ironically, it is that piece, the only one written by someone outside the band, that best summarizes the nature of Dreamtime's music: a blend of European improvisation, Italian avant-garde jazz, and the free jazz inherited from Chris McGregor's projects.
 
Состав
Double Bass – Roberto Bellatalla
Drums – Jim Le Baigue
Piano – Keith Tippett
Saxophone – Gary Curson
Trombone – Nick Evans
Trumpet – Jim Dvorak
По всем вопросам пишите личное сообщение пользователю M0p94ok.
01:41
160
Нет комментариев. Ваш будет первым!